<?xml version="1.0" standalone="no"?>
<!DOCTYPE svg PUBLIC "-//W3C//DTD SVG 1.1//EN" "http://www.w3.org/Graphics/SVG/1.1/DTD/svg11.dtd" >
<svg xmlns="http://www.w3.org/2000/svg">
<metadata></metadata>
<defs>
<font id="arno_proregular" horiz-adv-x="974" >
<font-face units-per-em="2048" ascent="1389" descent="-659" />
<missing-glyph horiz-adv-x="389" />
<glyph horiz-adv-x="2048" />
<glyph horiz-adv-x="2048" />
<glyph unicode="&#xd;" horiz-adv-x="682" />
<glyph unicode=" "  horiz-adv-x="389" />
<glyph unicode="&#x09;" horiz-adv-x="389" />
<glyph unicode="&#xa0;" horiz-adv-x="389" />
<glyph unicode="!" horiz-adv-x="612" d="M231 1184q-2 10 7.5 28.5t19.5 22.5q86 27 154 27q35 0 39 -19q0 -20 -12.5 -163.5t-32 -356.5t-29.5 -338q-6 -4 -34 2t-32 12q-10 117 -29.5 299.5t-34 315.5t-16.5 170zM233 86q0 49 33 84q33 31 84 31q47 0 74 -27q37 -35 37 -88q0 -45 -33 -78q-33 -35 -88 -35 q-45 0 -76 29q-31 37 -31 84z" />
<glyph unicode="&#x22;" horiz-adv-x="618" d="M98 1280q8 8 56.5 39t64.5 33l19 -2q8 -16 8 -82q0 -82 -13.5 -199t-25.5 -143q-16 -45 -55 -84l-7 -2h-10h-6q-4 358 -31 440zM373 1284q10 12 60 46t63 34h18q8 -14 8 -82q0 -84 -14 -198.5t-27 -143.5q-16 -49 -55 -84q-2 -2 -11 -3t-12 1q-3 356 -30 430z" />
<glyph unicode="#" horiz-adv-x="927" d="M33 449q-2 8 17.5 66t25.5 63q78 -10 170 -11l51 230q-135 0 -180 8q-4 12 15.5 63.5t29.5 55.5q72 -6 160 -6l51 249q0 2 33.5 14.5t40 12.5t10.5 -8l-56 -258q0 -10 7 -10l184 -3l59 273q8 8 72 24q6 0 12 -6l-63 -284q0 -6 6 -7q147 0 194 7q2 -6 -4 -31t-10 -31 q-55 -61 -205 -63q-10 0 -10 -9l-45 -213q0 -8 6 -8q143 0 189 8q2 -4 -2.5 -26.5t-8.5 -30.5q-66 -76 -207 -76q-2 0 -8 -10q-37 -203 -59 -291q0 -6 -12 -6q-4 0 -30 17.5t-28 21.5q33 145 58 268h-191q-8 0 -8 -8l-68 -295q-4 -6 -14 -6q-8 4 -30.5 20.5t-24.5 20.5 q6 29 28.5 125t30.5 143q-157 1 -186 7zM326 578q0 -10 6 -11h186l49 230h-182q-10 0 -14 -9z" />
<glyph unicode="$" d="M78 319q2 6 28.5 14.5t32.5 4.5q41 -139 96.5 -192.5t159.5 -73.5q2 -2 6.5 0t4.5 6l45 457q0 10 -9 14q-152 80 -225.5 157.5t-73.5 200.5q0 152 104.5 238t268.5 86q8 0 10 6l15 149q6 4 34.5 9.5t38.5 3.5l-18 -162q0 -8 8 -8q10 0 135 -17q76 -12 111 -14 q-18 -86 -37 -248q-4 -8 -29.5 -10t-29.5 6q-4 115 -40 161t-118 58q-8 0 -8 -8l-47 -442q0 -10 8 -15q82 -41 123 -65.5t97 -68.5t80.5 -97t24.5 -121q0 -141 -102 -238.5t-297 -109.5q-10 0 -10 -10l-16 -168q-10 -4 -37 -7t-35 -1l16 174q0 10 -6 10q-127 4 -262 57 q-24 37 -47 264zM293 967q0 -80 43 -129.5t127 -98.5q8 -4 12 6l41 416q0 10 -6 10q-106 -6 -161.5 -64t-55.5 -140zM475 76q0 -8 4 -8q96 2 161 52t69 152q2 80 -42 133.5t-139 106.5q-10 4 -10 -6z" />
<glyph unicode="%" horiz-adv-x="1429" d="M86 842q0 178 102 284q100 100 232 101q109 0 169 -89t60 -208q0 -213 -114 -307q-100 -86 -213 -86q-104 0 -170 89t-66 216zM221 907q0 -145 48 -215.5t116 -70.5q147 0 147 231q0 123 -44 211t-132 88q-72 0 -103.5 -73t-31.5 -171zM266 25q164 242 455 678t371 552 q23 14 82 23q12 -4 12 -18q-37 -49 -420 -624t-457 -675q-2 -2 -8 -3t-8 1q-6 6 -16.5 32t-10.5 34zM780 319q0 184 101 291q104 100 229 101q106 0 168.5 -90.5t62.5 -212.5q0 -199 -112 -302q-100 -86 -215 -86q-106 0 -170 87t-64 212zM913 391q0 -147 48.5 -217 t113.5 -70q150 0 150 236q0 123 -44 208t-130 85q-72 0 -105 -73t-33 -169z" />
<glyph unicode="&#x26;" horiz-adv-x="1456" d="M106 328q0 84 57.5 156.5t217.5 183.5q6 6 2 10q-117 137 -117 280q0 137 95.5 226.5t224.5 89.5q113 0 187.5 -70.5t74.5 -177.5q0 -80 -55.5 -144.5t-202.5 -162.5q-2 -2 -3 -5t1 -5q47 -47 164.5 -147.5t218.5 -172.5q8 -8 12 0q66 94 115 244q23 57 -23 76 q-29 12 -104 22q-8 2 -6 28.5t8 31.5q8 0 76.5 -3.5t117.5 -3.5q51 0 98.5 1t76 3.5t34.5 2.5q4 -6 4 -31t-6 -31q-57 -8 -82 -16q-49 -14 -82 -66q-27 -45 -63.5 -112.5t-61 -110.5t-47.5 -72q-2 -2 0 -7t4 -5q266 -197 310 -246q0 -27 -32 -87t-50 -81q-4 -4 -17.5 -5 t-15.5 3q-10 20 -61 72l-246 197q-2 4 -8 0q-186 -225 -428 -226q-174 0 -281 101.5t-107 259.5zM274 373q0 -123 88.5 -201t217.5 -78q76 0 152.5 35t129.5 98q6 10 2 15q-322 266 -432 381h-12q-49 -45 -75 -72t-48.5 -75t-22.5 -103zM401 1020q0 -141 131 -260q8 -6 15 0 q162 123 162 262q0 70 -43 128t-117 58q-61 0 -104.5 -50t-43.5 -138z" />
<glyph unicode="'" horiz-adv-x="346" d="M98 1280q8 8 58.5 39t66.5 33q16 0 19 -2q8 -14 8 -76q0 -86 -14.5 -204t-26.5 -144q-16 -49 -55 -84q-14 -6 -25 -2q0 344 -31 440z" />
<glyph unicode="(" horiz-adv-x="829" d="M178 547q0 332 139.5 591t362.5 414q8 -2 22.5 -21.5t12.5 -27.5q-184 -168 -287.5 -387t-103.5 -536q0 -297 95 -546t275 -409q2 -8 -14 -28.5t-25 -20.5q-57 25 -133 101.5t-155.5 196.5t-134 299t-54.5 374z" />
<glyph unicode=")" horiz-adv-x="829" d="M113 -375q188 172 289.5 387t101.5 537q0 623 -371 954q-2 8 15.5 27.5t23.5 21.5q59 -27 135 -103.5t156 -195t134 -299t54 -374.5q0 -334 -139 -591t-362 -413q-8 2 -23.5 21.5t-13.5 27.5z" />
<glyph unicode="*" horiz-adv-x="741" d="M43 924q37 66 59 73q55 23 183 70q-23 16 -87.5 78.5t-86.5 89.5q-6 4 -6.5 12t4.5 10q47 35 77 35q59 -76 158 -157q33 184 51 223q2 6 38 15t50 9q8 0 9 -12q-4 -10 -64 -248q70 20 248 97q4 0 9 -7.5t3 -11.5q-27 -63 -37 -70q-49 -27 -205 -83q29 -29 107 -87.5 t111 -72.5q2 -2 -3.5 -12.5t-9.5 -12.5q-12 -6 -41.5 -7t-48.5 5q-47 25 -106 70l-62 43q-47 -211 -47 -264q-4 -2 -14 -2q-16 6 -37 29.5t-19 49.5q4 47 35 211q-176 -63 -258 -88q-10 1 -10 15z" />
<glyph unicode="+" horiz-adv-x="1120" d="M90 453q8 63 25 96q10 -2 237 -2h144v139q0 205 -4 262q61 25 104 25q12 0 12 -72v-334q0 -20 13 -20h407q2 -2 2 -25q-16 -82 -35 -84q-10 -2 -72 -2h-154q-91 0 -146 -2q-14 0 -15 -18q-2 -70 -1 -153t1 -155.5t-2 -78.5q-2 -10 -39 -24.5t-55 -16.5q-12 0 -16 4v82 v163v197q-150 -2 -404 -2q-2 1 -2 21z" />
<glyph unicode="," horiz-adv-x="417" d="M-6 -319q172 158 170 315q-2 72 -62 162q6 16 55.5 64t67.5 57q4 4 19.5 4t19.5 -4q18 -14 34.5 -60.5t18.5 -103.5q2 -133 -81.5 -266.5t-184.5 -196.5q-23 -4 -53 16q-8 9 -4 13z" />
<glyph unicode="-" horiz-adv-x="585" d="M76 377q2 25 11 63.5t15 38.5q109 0 406 10v-20q-2 -20 -13.5 -57t-17.5 -39q-12 -6 -186 -11.5t-213 -3.5z" />
<glyph unicode="." horiz-adv-x="417" d="M94 96q0 45 37 86q37 33 80 33q45 0 76 -31q37 -33 37 -92q0 -49 -33 -80q-33 -35 -88 -35q-43 0 -74 31q-35 35 -35 88z" />
<glyph unicode="/" horiz-adv-x="931" d="M88 -225q102 215 334.5 802.5t308.5 796.5q2 6 41 17.5t53 11.5q10 -4 11 -14q-18 -66 -292 -755t-347 -824q-6 -12 -40 -29t-53 -21q-12 1 -16 15z" />
<glyph unicode="0" d="M66 594q0 338 153 514q123 137 303 137q150 0 242 -104q145 -164 145 -494q0 -393 -188 -569q-106 -102 -247.5 -102.5t-233.5 79.5q-174 152 -174 539zM246 674q0 -303 68.5 -459t197.5 -156q72 0 113 47q102 123 102 484q0 281 -67.5 429t-186.5 148q-78 0 -127 -61 q-45 -57 -72.5 -175t-27.5 -257z" />
<glyph unicode="1" d="M207 22.5q0 24.5 6 30.5q86 8 125 15q45 8 60.5 33.5t15.5 78.5q6 141 6 443q0 289 -6 405q-8 57 -56 62q-74 6 -118 6q-4 6 -2 27.5t6 25.5q80 8 176 38t149 58q23 6 27 -8q-10 -80 -10 -492q0 -440 6 -557q4 -55 17.5 -82.5t52.5 -35.5q8 -2 129 -19q4 -4 0.5 -28.5 t-9.5 -28.5q-18 0 -108 3t-166 3q-78 0 -178.5 -3t-116.5 -3q-6 4 -6 28.5z" />
<glyph unicode="2" d="M59 983q53 98 156.5 180t228.5 82q139 0 232.5 -101.5t93.5 -260.5q0 -197 -227 -447q-47 -55 -88 -100t-88.5 -94t-67.5 -72q-2 -4 -2 -7t3 -6t5 -3q111 -16 410 -11q35 0 69.5 37t85.5 146q10 4 30 -5.5t24 -17.5q-12 -55 -48 -157.5t-61 -137.5q-10 -14 -98 -14 q-74 -2 -269.5 2t-271.5 4q-53 0 -102 -4q-8 8 -8 45q117 106 186.5 178t165.5 195q174 225 174 420q0 111 -57.5 186.5t-174.5 75.5q-135 0 -260 -154q-8 -2 -25.5 16.5t-15.5 24.5z" />
<glyph unicode="3" d="M78 170q2 6 22.5 17.5t26.5 9.5q51 -111 125 -158q70 -43 188 -43q102 0 178 67.5t76 198.5q2 131 -85 216t-230 85q-43 0 -74 -6q-4 6 9.5 40t19.5 38q268 57 268 254q0 94 -55 156.5t-152 62.5q-123 0 -239 -117q-4 0 -11.5 10.5t-13.5 23.5t-6 17q66 80 159 141.5 t195 61.5q123 0 203 -82t82 -198q0 -152 -180 -275q-2 -2 -2 -5t2 -5q289 -90 288 -324q0 -109 -55 -198.5t-147 -149.5q-147 -94 -314 -94q-113 0 -178 33q-39 23 -63 71q-31 72 -37 152z" />
<glyph unicode="4" d="M27 352q-2 6 1 33t5 33q70 100 314.5 433t270.5 374q10 4 51.5 10t49.5 4v-754q0 -12 10 -12q117 0 236 4q-27 -84 -27 -127q-33 0 -102.5 1t-104.5 1q-6 0 -10 -12l4 -393q-115 -4 -176 -21q4 270 4 416q0 10 -8 10h-518zM177 476q1 -3 3 -3q82 -4 176 -4h189q8 0 8 12 l8 541q0 2 -3 3t-5 -1q-49 -68 -200.5 -284t-174.5 -257q-2 -4 -1 -7z" />
<glyph unicode="5" d="M82 80q0 16 12 53t25 53q2 2 12 6.5t14 2.5q113 -188 322 -189q104 0 168.5 63.5t64.5 168.5q0 94 -36.5 157.5t-135.5 132.5q-66 47 -188.5 109.5t-142.5 77.5q-4 6 -6.5 29.5t2.5 31.5q25 88 90 236.5t98 193.5q31 27 45 25q14 0 99 -6t128 -4q61 0 103 30q4 0 14 -8 t8 -14q-6 -27 -32.5 -71t-55.5 -71q-31 -29 -69 -28q-10 0 -220 12q-14 0 -26 -18q-47 -90 -70 -168q-8 -23 8 -29q20 -10 109.5 -56t158 -85t113.5 -72q166 -119 166 -297q0 -184 -152.5 -308t-328.5 -124t-268 100q-29 29 -29 66z" />
<glyph unicode="6" d="M72 426q0 285 216 534.5t580 370.5q8 -4 18.5 -25.5t6.5 -29.5q-449 -215 -576 -545q-2 -4 0 -8t7 -2q176 88 270 88q127 0 221 -106.5t94 -264.5q0 -262 -219 -399q-102 -66 -217 -66q-195 0 -298 132.5t-103 320.5zM254 459q0 -195 79 -299.5t199 -104.5q94 0 150.5 78 t56.5 213q0 168 -77.5 258t-194.5 90q-82 0 -145 -43q-37 -18 -50 -61q-18 -57 -18 -131z" />
<glyph unicode="7" d="M59 913q53 164 78 324q49 -16 162 -16h395q166 0 215 4q4 -2 7.5 -11.5t1.5 -13.5q-37 -129 -287 -668.5t-266 -586.5q-2 -8 -13 -8q-14 2 -40.5 14t-35 20.5t-0.5 26.5q37 80 158 322.5t218.5 446.5t119.5 277q0 10 -6 11q-352 8 -504 -4q-45 -4 -71.5 -31t-73.5 -125 q-6 -4 -31 3t-27 15z" />
<glyph unicode="8" d="M98 283q0 74 48.5 138t205.5 175q4 2 5 6t-3 6q-205 139 -204 310q0 147 118 241q111 86 250 86q135 0 226.5 -84t91.5 -213q0 -74 -47.5 -137t-167.5 -145q-2 -2 -2.5 -5.5t2.5 -5.5q143 -92 200.5 -162.5t57.5 -173.5q0 -137 -120 -239.5t-282 -102.5 q-190 0 -284.5 94.5t-94.5 211.5zM252 309q0 -106 74.5 -184t193.5 -78q84 0 140.5 49t56.5 140q0 100 -63.5 167.5t-229.5 161.5q-2 2 -8 2t-10 -2q-84 -72 -119 -128t-35 -128zM297 987q0 -90 57.5 -150.5t194.5 -140.5q10 -8 18 0q127 106 127 236q0 109 -60.5 176.5 t-156.5 67.5q-82 0 -131 -51.5t-49 -137.5z" />
<glyph unicode="9" d="M66 803q0 109 50 205t140 157q119 78 252 78q180 0 286.5 -139t106.5 -346q0 -299 -210 -531.5t-535 -337.5q-8 2 -18.5 25t-8.5 31q229 106 358 250.5t197 328.5q2 4 -2 6t-6 0q-162 -102 -295 -102q-127 0 -221 107.5t-94 267.5zM231 887q0 -166 81 -251t202 -85 q88 0 156 43q29 18 37 47q12 59 12 121q0 172 -75 288.5t-193 116.5q-98 0 -159 -77.5t-61 -202.5z" />
<glyph unicode=":" horiz-adv-x="550" d="M162 94q0 49 37 86q33 33 78 33t75 -31q37 -33 37 -90q0 -49 -31 -80q-35 -35 -88 -35q-43 0 -73 31q-35 35 -35 86zM162 618q0 49 37 84q33 33 77 33q47 0 76 -28q37 -33 37 -93q0 -51 -31 -79q-35 -35 -88 -35q-43 0 -73 30q-35 35 -35 88z" />
<glyph unicode=";" horiz-adv-x="550" d="M49 -319q182 162 176 321q0 59 -61 156q6 16 55 64t70 57q4 4 19.5 3t19.5 -6q14 -10 32.5 -55t20.5 -106q2 -127 -84 -263.5t-188 -199.5q-23 -4 -54 16q-10 9 -6 13zM162 618q0 49 37 84q37 33 80 33q45 0 73 -28q39 -33 39 -93q0 -49 -33 -79q-29 -35 -88 -35 q-47 0 -73 32q-35 29 -35 86z" />
<glyph unicode="&#x3c;" horiz-adv-x="1120" d="M129 444q-2 8 9.5 42t17.5 36q152 72 454.5 232.5t350.5 197.5q8 0 12 -10q0 -20 -8.5 -64t-16.5 -51q-31 -25 -257 -143.5t-361 -185.5q-8 -4 0 -13q20 -12 179 -93t305.5 -158.5t168.5 -98.5q6 -6 -9.5 -43t-25.5 -53q-6 -6 -16 -6q-61 45 -361.5 198.5t-441.5 212.5z " />
<glyph unicode="=" horiz-adv-x="1120" d="M88 637q6 57 27 98q20 -4 235 -4h678q8 -8 4 -20q-16 -84 -35 -90l-903 -3q-2 0 -5 7.5t-1 11.5zM90 266q8 61 25 101q20 -6 235 -7h676q4 -4 4 -20q-2 -14 -16.5 -51t-20.5 -39l-897 -2q-6 0 -6 18z" />
<glyph unicode="&#x3e;" horiz-adv-x="1120" d="M135 850q-6 4 9.5 41t25.5 53q6 12 16 6q61 -45 362.5 -199.5t440.5 -211.5q2 -8 -8 -41t-18 -37q-156 -74 -457 -232.5t-348 -195.5q-8 0 -13 8q0 20 8.5 65.5t16.5 51.5q78 57 618 327q8 6 0 15q-20 12 -178.5 93t-305 159t-169.5 98z" />
<glyph unicode="?" horiz-adv-x="747" d="M162 1135q0 14 17.5 50t33.5 54q18 23 68 23q129 0 243 -93q121 -96 121 -229q0 -88 -45 -141q-25 -27 -109.5 -90.5t-105.5 -81.5q-29 -20 -29 -54q0 -16 21.5 -50t54.5 -62q4 -2 3 -12.5t-5 -14.5q-10 -10 -43 -27.5t-47 -19.5q-20 -6 -43 0q-43 20 -68.5 57t-25.5 76 q0 43 22 66q18 18 117.5 96t120.5 96q47 41 47 96q0 72 -71.5 138.5t-186.5 85.5q-12 2 -38 5t-28 3q-24 4 -24 29zM252 86q0 49 33 82q37 33 82 33q47 0 75 -29q35 -33 35 -88q0 -43 -31 -76q-33 -35 -90 -35q-43 0 -73.5 31t-30.5 82z" />
<glyph unicode="@" horiz-adv-x="1720" d="M111 272q0 371 245 637q279 301 656 301q145 0 263 -54t188.5 -142t108.5 -191.5t38 -210.5q0 -154 -56.5 -280.5t-143.5 -201.5t-183.5 -115t-184.5 -40q-100 0 -86 142q6 76 23 155q0 4 -3 4t-5 -2q-98 -135 -208 -218t-175 -83q-57 0 -82 64.5t-25 142.5 q0 129 49.5 254t135.5 215q63 70 177.5 129.5t229.5 59.5q90 0 172 -21q-33 -74 -51 -143q-27 -111 -53.5 -273.5t-28.5 -222.5q0 -82 59 -82q121 0 219.5 116t98.5 335q0 281 -157.5 428t-401.5 145q-76 0 -159 -23.5t-177 -83t-168 -149.5t-123 -240.5t-49 -336.5 q0 -266 106.5 -420t260.5 -201q86 -25 155 -18q2 -4 2 -16.5t-2 -18.5q-49 -37 -147 -37q-41 0 -100.5 22.5t-133 77t-137 131t-105.5 199.5t-42 266zM637 270q0 -135 68 -135q100 0 258 232q37 57 61 151q47 186 53 201q-29 20 -116 20q-152 0 -246 -164q-78 -137 -78 -305 z" />
<glyph unicode="A" horiz-adv-x="1255" d="M-51 23.5q0 23.5 6 29.5q113 14 151.5 44t88.5 147q174 416 342 901q29 76 34 117h23q25 -2 45 -2q18 0 33.5 1t23.5 1h11q16 -63 32 -107q270 -772 340 -936q45 -102 78 -126.5t143 -39.5q4 -4 5 -16q0 -6 -1 -13q-3 -24 -8 -30q-160 6 -249 6q-139 0 -269 -6 q-4 6 -6 29.5t4 29.5q76 10 113 23q35 16 22 51q-41 150 -123 352q-4 14 -18 15h-192h-170q-14 0 -21 -19q-106 -289 -111 -332q-2 -31 10.5 -46t55.5 -27q41 -10 98 -17q4 -6 2 -29.5t-6 -29.5q-12 0 -104 3t-158 3q-68 0 -138.5 -3t-80.5 -3q-6 6 -6 29.5zM432 604 q0 -12 8 -14q20 -2 164 -2q117 0 137 2q4 0 7 5q1 3 1 5.5t-1 5.5q-86 264 -152 443q-10 0 -10 -2q-10 -29 -72 -204.5t-82 -238.5z" />
<glyph unicode="B" horiz-adv-x="1173" d="M34 29q0 21 7 24q117 12 131 17q35 10 48 30.5t18 73.5q4 66 4 465q0 426 -2 465q-2 70 -56 86q-33 10 -118 18q-6 4 -5.5 29t7.5 29q14 0 91 -3t144 -3q57 0 159.5 2t170.5 2q61 0 116.5 -11.5t114 -40t94 -89t35.5 -146.5t-54 -155.5t-144 -106.5q-8 -4 0 -8 q129 -31 208.5 -110t79.5 -206q0 -242 -256 -352q-119 -51 -317 -51q-18 0 -203 4q-123 3 -199 3q-38 0 -65 -1q-9 5 -9 35zM414 635q0 -379 6 -463q8 -55 47 -78q44 -28 151 -28h7q127 0 197.5 70.5t70.5 209.5q0 145 -98.5 223t-272.5 78q-84 0 -98 -4q-10 0 -10 -8z M414 731q0 -10 10 -10q45 -4 127 -4q123 0 166 24q96 57 96 191q0 260 -305 260q-41 0 -72 -6q-16 -8 -16 -33q-6 -178 -6 -422z" />
<glyph unicode="C" horiz-adv-x="1378" d="M113 639q0 174 81.5 325.5t243.5 237.5q172 94 416 94q102 0 244.5 -19.5t158.5 -21.5q-29 -172 -32 -315q-6 -6 -34 -9t-30 5q-14 121 -38.5 167t-84.5 75q-92 45 -254 45q-221 0 -344 -151.5t-123 -414.5q0 -260 142.5 -432t404.5 -172q150 0 226 70q66 53 153 201 q8 0 27.5 -11.5t21.5 -21.5q-16 -68 -68.5 -162t-86.5 -115q-150 -51 -314 -51q-340 0 -525 177t-185 499z" />
<glyph unicode="D" horiz-adv-x="1452" d="M31 25.5q0 23.5 6 27.5q86 6 133 21q61 16 68 98q6 129 6 479q0 362 -6 436q-2 51 -18.5 72t-55.5 31q-43 10 -109 18q-4 6 -1 30t7 28q20 0 119 -3t129 -3q53 0 173 4t225 4q272 0 438 -144q195 -170 194 -465q0 -356 -262 -534q-197 -139 -489 -139q-63 0 -215 4 t-234 4h-102q-6 8 -6 31.5zM420 649q0 -410 4 -454q4 -59 41 -82q59 -45 221 -45q182 0 299 108q160 150 160 449q0 330 -234 485q-125 84 -362 84q-78 0 -105 -10q-20 -10 -22 -37q-2 -23 -2 -498z" />
<glyph unicode="E" horiz-adv-x="1142" d="M15 28q0 18 5 25q125 12 156 21q37 8 51.5 31.5t18.5 78.5q2 39 2 496q0 369 -2 405q-4 57 -14.5 77t-47.5 28q-35 10 -108 20q-8 6 -6 28t8 30q18 0 112.5 -4t159.5 -4h404q170 0 227 8q8 -8 8 -11q-23 -82 -37 -280q-6 -8 -32.5 -8t-30.5 4q-6 66 -23 125 q-12 39 -32.5 56t-69.5 22q-29 2 -161 2t-152 -2q-10 -2 -17.5 -16.5t-7.5 -22.5q-2 -115 -2 -435q0 -14 10 -14q68 -1 125 -1q115 0 189 5q51 4 69 62q14 37 23 82q8 4 34.5 3t32.5 -10q-14 -96 -14 -192q0 -84 4 -186q-8 -8 -34.5 -9.5t-35.5 7.5q-8 61 -16 83 q-16 55 -70 60q-43 4 -148 5h-65q-59 0 -94 -1q-10 0 -10 -16q0 -311 4 -410q0 -61 47 -78q49 -12 303 -12q63 2 93 16.5t59 50.5q47 53 102 181q8 2 30.5 -6.5t29.5 -16.5q-8 -51 -36 -144t-50 -136q-10 -18 -33 -25.5t-94 -7.5q-80 0 -250 4t-283 4q-76 0 -182.5 -3 t-140.5 -3q-8 5 -8 34z" />
<glyph unicode="F" horiz-adv-x="1089" d="M53 22.5q0 24.5 6 30.5q66 6 109 16.5t55.5 31t16.5 77.5q2 74 2 467q0 377 -4 440q-2 53 -11.5 72t-42.5 31q-41 12 -116 20q-6 4 -4 29t6 29q12 0 100 -3t152 -3h483q129 0 196 10q4 0 11 -13q-23 -80 -31 -288q-4 -8 -31.5 -10.5t-34.5 6.5q-14 88 -30 139 q-25 68 -92 70q-141 4 -228 4t-119 -4q-25 -4 -24 -37q-4 -238 -4 -463q0 -10 10 -10q266 0 332 4q61 4 82 65q14 37 24 90q10 4 36 2t34 -8q-12 -94 -12 -205q0 -82 4 -196q-8 -8 -32 -8t-34 4q-8 39 -24 90q-18 63 -71.5 65t-179.5 4q-63 1 -103 1t-56 -1q-10 0 -10 -10 q0 -295 4 -381q2 -53 15.5 -75.5t56.5 -32.5q35 -6 137 -19q6 -6 5 -29.5t-7 -29.5q-23 0 -121 3t-184 3q-70 0 -153 -3t-112 -3q-6 4 -6 28.5z" />
<glyph unicode="G" horiz-adv-x="1441" d="M113 637q0 201 95 353.5t265 228.5q166 77 393 77h6q98 0 245 -21.5t161 -23.5q-33 -154 -37 -325q-4 -8 -31.5 -10.5t-35.5 4.5q-12 115 -34 167t-67 78q-98 57 -278 58q-233 0 -353 -151.5t-120 -412.5q0 -276 145 -450t414 -174q96 0 137 26q37 18 45 86q5 55 5 130 q0 37 -1 79q-4 53 -18.5 75t-57.5 34q-31 6 -137 20q-8 4 -6 30t8 30q25 0 121 -3t166 -3q100 0 223 6q4 -4 4 -31t-6 -31q-49 -8 -68 -14q-49 -14 -51 -98q-3 -86 -3 -143t3 -85q2 -25 10.5 -36t40.5 -23q2 -4 -1 -21.5t-5 -21.5q-256 -78 -446 -78q-358 0 -544.5 174 t-186.5 500z" />
<glyph unicode="H" horiz-adv-x="1531" d="M54 1231q0 28 7 35q16 0 107.5 -3t155.5 -3q78 0 157.5 3t98.5 3q4 -8 4 -31t-6 -27q-80 -12 -99 -18q-33 -10 -44 -28.5t-13 -65.5q-2 -39 -2 -381q0 -16 10 -21q29 -4 348 -4q309 2 322 4q12 0 12 13q0 338 -4 411q-4 53 -41 68q-39 12 -121 22q-8 6 -7 29t9 31 q16 0 105.5 -4t150.5 -4q59 0 152.5 3t101.5 3q4 -6 5 -29t-5 -29q-72 -10 -106 -20q-33 -10 -43.5 -31.5t-14.5 -79.5q-4 -72 -4 -436q0 -403 4 -473q4 -43 16.5 -63.5t41.5 -28.5q37 -14 131 -23q4 -4 4 -16q0 -6 -1 -14q-3 -25 -11 -29q-25 0 -121.5 3t-153.5 3 q-100 0 -260 -6q-6 6 -6 28.5t6 30.5q82 10 117 21q29 8 40 27.5t13 66.5q2 59 2 412q0 14 -12 14q-39 2 -326 2q-328 0 -348 -2q-6 0 -6 -12q0 -348 2 -392q4 -55 15.5 -78.5t47.5 -33.5q61 -16 123 -25q6 -8 2 -31.5t-10 -27.5q-8 0 -98 3t-168 3q-70 0 -166 -3t-107 -3 q-6 6 -6 29.5t4 29.5q59 8 111 19q41 12 54.5 41.5t17.5 107.5q0 20 1 170t1 252q0 379 -4 453q-4 43 -15.5 62.5t-42.5 27.5q-23 8 -123 22q-5 5 -5 23z" />
<glyph unicode="I" horiz-adv-x="659" d="M53 23.5q0 25.5 6 29.5q70 6 105 17q41 8 54 27.5t18 60.5q8 57 8 536q0 301 -6 398q-2 31 -5.5 46t-14.5 28.5t-32 19.5q-23 8 -125 22q-6 6 -4 30t6 28q14 0 109.5 -3t157.5 -3q59 0 147 3t107 3q4 -6 5 -27.5t-3 -30.5q-86 -12 -105 -16q-33 -8 -44 -29.5t-15 -72.5 q-4 -57 -4 -437q0 -399 4 -471q2 -49 15.5 -73.5t56.5 -34.5q33 -10 120 -21q5 -5 5 -19q0 -5 -1 -11q-2 -25 -8 -29q-18 0 -112.5 3t-151.5 3q-66 0 -162 -3t-123 -3q-8 4 -8 29.5z" />
<glyph unicode="J" horiz-adv-x="655" d="M-186 -379q8 74 41 133q127 -88 219 -88q74 0 119 51q69 83 69 323v7q1 123 2 335q0 106 -1 234q-1 385 -5 453q-2 35 -6 52.5t-18.5 37t-40.5 27.5q-33 10 -130 22q-6 6 -5 30t8 28q18 0 109 -3t175 -3q66 0 147 3t103 3q6 -4 6 -29t-8 -29q-82 -12 -111 -24 q-37 -14 -41 -80q0 -16 -3 -408.5t-7 -496.5q-10 -252 -76 -373q-74 -139 -182 -219t-211 -80q-53 0 -95 18.5t-56 46.5v15z" />
<glyph unicode="K" horiz-adv-x="1316" d="M55 22.5q0 24.5 4 30.5q96 12 113 17q39 10 51.5 34.5t16.5 85.5q3 67 3 178v58q0 101 -1 233q0 377 -2 437q-4 49 -15.5 67.5t-50.5 28.5q-37 8 -102 16q-8 6 -8.5 29t8.5 29q12 0 96 -3t162 -3q59 0 143 3t105 3q4 -6 4 -27.5t-4 -30.5q-94 -18 -103 -20 q-33 -8 -43 -29.5t-14 -77.5q-2 -90 -2 -417q0 -319 2 -463q4 -70 17.5 -94.5t51.5 -34.5q55 -10 115 -19q6 -6 4 -30.5t-8 -28.5q-29 0 -129 3t-158 3q-55 0 -149 -3t-103 -3q-4 4 -4 28.5zM439 620q0 5 1 11q2 12 4 14q66 25 194 156t232 262q41 55 41 86q0 25 -39 37 q-41 14 -106 22q-6 6 -5 29t7 29q29 0 104.5 -3t131.5 -3q74 0 245 6q6 -4 6 -28t-8 -30q-94 -14 -141 -37.5t-109 -91.5q-88 -98 -368 -391q-2 -4 0 -10q61 -92 239.5 -286.5t276.5 -272.5q41 -33 82 -45q57 -18 141 -21q4 -4 4 -16q0 -6 -1 -14q-3 -25 -11 -29 q-31 -4 -88 -4q-38 0 -88 2q-125 4 -162 16q-39 14 -84 53q-68 61 -219.5 233.5t-239.5 285.5q-12 16 -39 32q-1 3 -1 8z" />
<glyph unicode="L" horiz-adv-x="1126" d="M30 29q0 21 7 24q90 8 135 19q33 8 46 27.5t18 56.5q8 111 8 522q0 340 -4 393q-2 66 -13.5 88.5t-52.5 30.5q-49 12 -113 18q-6 6 -4 30t11 28q20 0 102 -3t160 -3q80 0 162.5 3t91.5 3q8 -6 8 -29t-8 -29q-51 -6 -105 -18q-35 -8 -44 -26.5t-11 -55.5q-2 -33 -6 -442 q0 -424 6 -512q2 -45 39 -58q48 -17 214 -17h19q50 0 109 1q72 4 121 76q63 86 121 225q12 2 33.5 -5t27.5 -18q-12 -66 -47 -182.5t-60 -159.5q-14 -27 -81 -27q0 1 -2 1q-70 0 -304.5 5t-283.5 5q-55 0 -167 -3t-126 -3q-7 5 -7 35z" />
<glyph unicode="M" horiz-adv-x="1746" d="M13 17q0 28 5 36q92 14 101 17q47 14 63.5 41.5t26.5 103.5q35 258 74 875q0 70 -58 90q-43 14 -141 28q-6 4 -4 29t8 29q18 0 135 -3t238 -3q8 -53 39 -119q305 -678 389 -826q4 -4 8 2q31 55 184.5 375t212.5 459q31 72 35 109q115 0 223.5 3t139.5 3q6 -4 6 -28 t-6 -30q-123 -20 -133 -22q-57 -16 -58 -82v-48q0 -118 6 -405q8 -358 17 -465q4 -57 19.5 -80.5t60.5 -35.5q27 -6 112 -17q5 -7 5 -23v-5q-1 -20 -7 -31q-14 0 -106 3t-164 3q-113 0 -273 -6q-4 6 -5 29.5t5 29.5q82 14 111 23q55 14 55 88q1 72 1 161q0 267 -9 691 q-4 6 -10 0q-14 -33 -121.5 -261.5t-208 -449.5t-131.5 -307q-4 -2 -29 -4q-12 -1 -19.5 -1t-10.5 1q-23 76 -110 283.5t-197.5 459.5t-122.5 283q-6 6 -11 -4q-39 -557 -41 -807q0 -63 12.5 -92t55.5 -41q31 -10 129 -23q6 -6 4 -30.5t-10 -28.5q-12 0 -96 3t-146 3 q-66 0 -152.5 -3t-95.5 -3q-5 5 -5 23z" />
<glyph unicode="N" horiz-adv-x="1503" d="M27 1228q1 33 8 38q18 0 108 -3t148 -3q76 0 92 2q14 -35 74 -111q461 -578 727 -889q4 -2 8 2q0 692 -8 811q-4 49 -19.5 72.5t-58.5 36.5q-55 16 -137 24q-6 6 -5 30t5 28q18 0 109 -3t163 -3q41 0 125 3t92 3q6 -4 6 -28t-6 -30q-51 -8 -90 -20q-63 -23 -70 -111 q-4 -57 -16 -807q0 -145 4 -280q-16 2 -69.5 2t-71.5 -2q-111 160 -795 1014q-2 2 -5 1t-3 -4q-3 -123 -3 -329v-109q1 -285 5 -366q2 -59 22.5 -86t61.5 -37q27 -8 123 -21q6 -6 4 -29.5t-8 -29.5q-16 0 -103.5 3t-152.5 3q-74 0 -154 -3t-92 -3q-4 4 -4 29.5t4 29.5 q59 6 109 19q74 23 77 121q12 150 19 870q0 70 -55 100q-49 33 -164 45q-3 3 -4 20z" />
<glyph unicode="O" horiz-adv-x="1527" d="M113 641q0 221 127 395q84 117 235.5 188.5t310.5 71.5q152 0 274 -52t198.5 -142t116.5 -204t40 -241q0 -252 -125 -426q-92 -129 -236.5 -198.5t-301.5 -69.5q-289 0 -463 187q-176 194 -176 491zM313 688q0 -172 65.5 -326.5t194.5 -238.5q111 -70 256 -70 q135 0 220 72q172 139 172 461q0 174 -59.5 319.5t-176.5 227.5q-118 81 -264 81h-4q-104 0 -185 -45q-109 -63 -164 -191t-55 -290z" />
<glyph unicode="P" horiz-adv-x="1118" d="M59 23.5q0 23.5 4 27.5q100 14 109 17q37 10 48 33.5t16 84.5q6 104 6 459q0 408 -2 438q-4 55 -18.5 78t-55.5 31q-49 10 -100 16q-6 8 -4.5 30t8.5 28q8 0 97 -3t144 -3q61 0 167 2t165 2q174 0 272 -78q127 -100 127 -277q0 -131 -63.5 -222t-153.5 -134 q-100 -51 -215 -51q-57 0 -88 10q-18 12 -26 49q0 14 8 19q29 -6 80 -7q82 0 143 31q125 70 125 264q0 150 -80 238t-248 88q-68 0 -86 -10q-14 -8 -16 -29q-4 -94 -4 -485q0 -440 2 -494q4 -55 18.5 -74.5t57.5 -29.5q23 -6 122 -19q6 -6 4.5 -30.5t-6.5 -28.5 q-27 0 -133 3t-149 3q-53 0 -151.5 -3t-116.5 -3q-7 6 -7 29.5z" />
<glyph unicode="Q" horiz-adv-x="1527" d="M113 635q0 225 110 381q90 131 245 205.5t325 74.5q281 0 451.5 -182t170.5 -457q0 -297 -170 -483q-117 -123 -280 -178q51 -14 196 -84q330 -164 490 -164h10q149 0 260 57q6 -4 8 -28q1 -8 1 -15q0 -13 -3 -20q-180 -147 -416 -148q-131 0 -294 89q-72 39 -170.5 102 t-151.5 96q-119 72 -207 84q-197 27 -323 119q-252 178 -252 551zM313 690q0 -281 143.5 -463t383.5 -182q168 0 274.5 150.5t106.5 394.5q0 264 -128 444t-376 180q-135 0 -229.5 -77.5t-134.5 -192.5t-40 -254z" />
<glyph unicode="R" horiz-adv-x="1253" d="M55 23.5q0 23.5 8 29.5q82 10 105 17q37 8 52.5 31.5t17.5 80.5q4 94 4 439q0 414 -2 477q-2 43 -16.5 64.5t-51.5 29.5q-53 10 -111 16q-6 6 -4 30t9 28q23 0 112.5 -3t122.5 -3q84 0 195.5 2t144.5 2q172 0 269.5 -90.5t97.5 -225.5q0 -225 -234 -330q-8 -8 -4 -14 q61 -98 162.5 -234.5t171.5 -207.5q61 -63 101 -82t134 -31q2 -3 2 -10.5t-2 -20.5q-4 -25 -12 -26q-39 -2 -74 -2q-169 0 -254 41q-51 25 -98 82q-45 55 -156.5 222t-123.5 185q-23 31 -52 31q-14 2 -145 2q-8 0 -8 -12q0 -303 4 -371q2 -51 16.5 -70.5t48.5 -27.5 q49 -10 115 -19q8 -6 6 -29.5t-10 -29.5q-8 0 -100.5 3t-171.5 3q-78 0 -165 -3t-96 -3q-8 6 -8 29.5zM416 645q0 -10 10 -10q45 -1 83 -1q139 0 181 17q133 61 133 238q0 305 -317 305q-47 0 -72 -10q-14 -10 -14 -31q-4 -70 -4 -508z" />
<glyph unicode="S" horiz-adv-x="989" d="M86 334q2 8 28.5 15t35.5 3q55 -195 147 -258q74 -55 201 -55q88 0 153.5 54t65.5 161q0 94 -58.5 155.5t-209.5 151.5q-154 88 -230 174t-76 215q0 160 115 253t289 93q84 0 193.5 -17t117.5 -17q-18 -90 -35 -283q-4 -8 -29.5 -9t-29.5 7q-16 170 -80 211 q-59 43 -166 43q-100 0 -156.5 -63.5t-58.5 -145.5q0 -80 34 -132t105 -102q47 -31 140.5 -81t113.5 -62q197 -125 197 -303q0 -158 -123 -268.5t-332 -110.5q-168 0 -295 64q-12 18 -31.5 131t-25.5 176z" />
<glyph unicode="T" horiz-adv-x="1312" d="M47 944q33 176 41 338q0 2 9 6q6 3 10 3q2 0 4 -1q59 -30 159 -30h6h758q131 0 199 30q16 0 20 -10q-23 -78 -47 -346q-4 -8 -32.5 -8t-32.5 6q-10 131 -33 182q-23 57 -80 60q-96 2 -168 2t-119 -2q-10 -4 -10 -17q0 -868 6 -973q4 -53 19.5 -75.5t50.5 -32.5 q33 -10 139 -23q4 -8 2 -32.5t-10 -26.5q-20 0 -126.5 3t-178.5 3q-88 0 -191.5 -3t-117.5 -3q-6 8 -5.5 30.5t5.5 28.5q109 10 145 21q47 8 61.5 39.5t16.5 107.5q8 213 8 938q0 16 -14 17q-41 2 -107 2t-158 -2q-53 -4 -86 -58q-23 -37 -79 -190q-6 -4 -34 2t-30 14z" />
<glyph unicode="U" horiz-adv-x="1443" d="M46 1230q0 31 7 36q10 0 107.5 -3t152.5 -3q53 0 137.5 3t104.5 3q6 -4 6 -29t-6 -29l-96 -18q-35 -10 -47.5 -32.5t-14.5 -76.5q-2 -110 -2 -210v-66q0 -172 4 -309q6 -145 39 -209q33 -92 124 -149.5t231 -57.5q72 0 126 14.5t106 51t84 114.5t38 195q9 171 9 340 q0 127 -5 254q-2 76 -21.5 103.5t-70.5 37.5q-12 4 -27.5 6t-38 6t-39.5 6q-6 6 -5 30t7 28q8 0 92.5 -3t153.5 -3q53 0 131 3t88 3q4 -4 5 -29q0 -4 1 -7q0 -19 -6 -22q-12 -4 -42.5 -10t-43.5 -10q-43 -12 -57 -44t-16 -108q-2 -94 -5.5 -218t-5.5 -177t-5 -121.5 t-9 -110.5t-16 -85q-29 -131 -109 -215t-175 -115t-212 -31q-449 0 -494 371q-10 78 -13 414.5t-3 338.5q-4 82 -57 101q-14 4 -107 20q-5 4 -5 22z" />
<glyph unicode="V" horiz-adv-x="1275" d="M-39 1228q0 2 -0.5 5t0.5 6q2 25 10 27q20 0 110.5 -3t139.5 -3q74 0 166 3t96 3q8 -4 9.5 -29t-7.5 -29q-41 -8 -106 -22q-34 -7 -34 -37q0 -12 5 -27q47 -133 176 -478t158 -415q6 0 10 2q45 104 165 410.5t159 427.5q12 37 12 61q0 13 -4 23q-10 27 -55 35l-111 20 q-4 6 -2 31t8 27q4 0 85 -3t157 -3q61 0 130 3t85 3q6 -4 6 -28t-6 -30q-55 -10 -90 -20q-45 -14 -67.5 -47t-63.5 -129q-55 -125 -303 -742q-70 -172 -107 -288q-31 6 -61 6l-62 -6q-33 125 -88 278q-197 530 -288 766q-37 86 -62 118t-70 46q-45 10 -96 18q-5 5 -4 20z " />
<glyph unicode="W" horiz-adv-x="1794" d="M-54 1230q0 33 9 38q33 0 126 -4t148 -4q156 2 246 6q6 -4 7 -29t-7 -29q-76 -16 -102 -24q-33 -11 -34 -54q0 -12 3 -26q53 -231 223 -819q4 0 8 2q240 655 312 915q30 -4 57 -4t51 4q33 -125 144.5 -446.5t175.5 -485.5q4 -4 10 2q172 530 227 781q11 34 11 61 q0 13 -2 25q-8 35 -52 47q-49 12 -121 22q-8 6 -7 30t7 28q20 0 105.5 -3t132.5 -3q80 0 152.5 3t83.5 3q6 -4 6 -29t-6 -29q-63 -12 -91 -22q-39 -14 -61 -41t-45 -86q-141 -387 -344 -1071q-86 0 -105 -2q-33 119 -145.5 446.5t-175.5 495.5q-4 0 -8 -4 q-250 -692 -326 -936q-12 2 -51 1t-53 -3q-49 205 -147.5 564t-145.5 503q-23 68 -44.5 95.5t-60.5 37.5q-39 12 -108 22q-3 5 -3 22z" />
<glyph unicode="X" horiz-adv-x="1259" d="M-18 23.5q0 25.5 6 29.5q74 8 125 25q43 12 73.5 39.5t75.5 85.5q47 61 289 409q4 8 0 17q-166 289 -252 424q-33 49 -44 64.5t-38 37t-63 31.5q-39 12 -119 22q-8 6 -7 30t7 28q35 0 122 -3t150 -3q154 0 234 6q8 -4 8 -28t-6 -30l-82 -16q-25 -8 -17 -35 q18 -43 224 -387q8 -8 12 0q172 260 219 360q6 14 6 26q0 22 -24 30q-12 4 -113 22q-4 8 -1 31t9 27q20 0 96 -3t129 -3q66 0 142 3t84 3q4 -4 5 -29t-5 -29q-63 -8 -99 -18q-49 -14 -86.5 -47t-101.5 -125q-94 -135 -217 -320q-6 -6 0 -16q225 -375 256 -422 q70 -106 104.5 -140t85.5 -48q45 -10 113 -19q7 -3 7 -20q0 -34 -11 -39q-2 0 -107 4q-70 3 -130 3q-30 0 -58 -1q-53 0 -109.5 -2t-92.5 -3t-48 -1q-6 4 -7 29.5t5 29.5q61 8 98 21q25 6 25 24q0 10 -8 25q-59 125 -240 412q-2 4 -6 4t-6 -2q-205 -301 -258 -406 q-8 -15 -8 -26q0 -23 34 -31q31 -10 105 -21q6 -6 3 -30.5t-9 -28.5q-18 0 -112 4q-62 3 -102 3q-20 0 -34 -1q-45 0 -123 -3t-102 -3q-6 4 -6 29.5z" />
<glyph unicode="Y" horiz-adv-x="1155" d="M-40 1229q0 30 7 37q20 0 110.5 -3t143.5 -3q154 0 228 6q8 -4 9 -28t-7 -30q-66 -12 -74 -14q-23 -8 -23 -28q0 -12 8 -29q39 -84 132.5 -263.5t126.5 -234.5q10 0 12 2q57 94 142 248.5t112 222.5q9 20 9 35q0 35 -50 45q-14 4 -46 8t-50 8q-6 8 -4 32t10 26 q184 -6 225 -6q113 0 217 6q8 -2 8 -28t-6 -30l-86 -16q-45 -12 -73.5 -39t-69.5 -92q-160 -248 -287 -498q-16 -37 -16 -71q0 -78 4 -287q2 -70 14 -98.5t53 -36.5q33 -8 125 -19q4 -6 2 -29.5t-8 -27.5q-16 0 -115.5 3t-167.5 3q-84 0 -180 -3t-114 -3q-6 4 -6.5 28.5 t6.5 28.5q102 12 139 21q39 10 53 35.5t16 76.5q2 100 3 265q0 59 -17 98q-53 123 -246 473q-59 102 -87.5 131t-84.5 43q-8 2 -94 14q-3 5 -3 21z" />
<glyph unicode="Z" horiz-adv-x="1212" d="M68 940q33 145 53 340q2 4 15 6q7 1 11 1t5 -1q34 -26 158 -26h9h469q229 0 289 6q6 -6 6 -31q-33 -57 -140 -223t-210.5 -323t-234.5 -354.5t-156 -234.5q-2 -2 0 -7t4 -5q69 -12 306 -12q89 0 202 2q68 0 115 47q66 66 149 256q6 4 32 -6t28 -19q-6 -47 -45 -174 t-64 -170q-10 -20 -96 -20q-80 0 -682 8q-8 0 -92 -2t-115 -4q-2 2 -5 18.5t-1 20.5q129 168 414.5 588.5t355.5 547.5q2 2 0 7.5t-4 5.5q-105 2 -197 2q-183 0 -311 -8q-78 -4 -121 -68q-31 -49 -86 -186q-6 -6 -32.5 3t-28.5 15z" />
<glyph unicode="[" horiz-adv-x="788" d="M231 -358l2 1859q0 12 11 12h413q0 -4 1 -23.5t-3 -42t-12 -22.5q-119 -4 -293 -4q-12 0 -12 -14q-10 -82 -10 -823q0 -700 10 -822q6 -37 20 -41q35 -10 314 -10q4 -8 -1 -47t-16 -41q-203 -6 -346 0q-55 5 -78 19z" />
<glyph unicode="\" horiz-adv-x="897" d="M84 1352q18 29 78 63q2 0 7 -1t7 -1q479 -1305 633 -1634q-6 -14 -16 -15q-86 20 -103 46q-37 68 -157.5 377t-263 684t-185.5 481z" />
<glyph unicode="]" horiz-adv-x="790" d="M117 1419q-6 8 0 48t16 40q164 4 397 4q16 0 29 -16v-1862q0 -2 -5 -7t-7 -5q-106 -4 -412 -4q-4 0 -4 22.5t4 45t12 22.5q238 0 295 8q4 0 8.5 7.5t4.5 11.5q10 78 10 813q0 707 -10 827q-6 39 -21 41q-18 2 -75.5 2t-131 1t-110.5 1z" />
<glyph unicode="^" horiz-adv-x="958" d="M94 543q31 41 171.5 318.5t172.5 357.5q2 2 35 12t39 10q49 -113 180 -368t170 -308q0 -4 -4 -12q-12 -10 -57 -24.5t-49 -10.5q-18 18 -80 133t-126.5 241t-72.5 142l-12 2l-2 -2q-201 -426 -246 -477q-18 -27 -104 -27q-15 1 -15 13z" />
<glyph unicode="_" horiz-adv-x="1136" d="M-8 -373h1165v-104h-1165v104z" />
<glyph unicode="`" horiz-adv-x="819" d="M199 1217q-6 10 6 22q16 6 74.5 15.5t74.5 5.5q51 -106 121 -322q-2 -8 -22.5 -18.5t-26.5 -8.5q-37 43 -118.5 155t-108.5 151z" />
<glyph unicode="a" horiz-adv-x="831" d="M78 207q0 27 13 64.5t24 52.5q35 18 191.5 66t195.5 67q12 6 12 20q2 10 2 55q0 78 -31 121q-53 78 -155 78q-55 0 -82 -20q-37 -27 -86 -148q-2 -4 -17.5 2t-29 18.5t-13.5 20.5q4 23 21.5 68t26.5 53q63 45 146 79t122 34q131 0 203 -109q47 -78 47 -203q0 -55 -4 -182 t-5 -164q0 -82 78 -82q41 0 72 11q1 -2 1 -8q0 -8 -2 -24q-3 -26 -7 -30q-66 -72 -168 -72q-80 0 -105 54q-6 8 -16 51q0 2 -3 3t-5 -1q-170 -106 -244 -107q-57 0 -113 52q-69 76 -69 180zM240 236q0 -61 38.5 -100.5t104.5 -39.5q57 0 104 33q18 10 23 47q4 43 4 211 q0 2 -4 6q-3 3 -5 3q-1 0 -1 -1q-221 -78 -244 -94q-6 -4 -13 -26.5t-7 -38.5z" />
<glyph unicode="b" horiz-adv-x="1001" d="M-13 1296q0 24 9 31q176 10 321 62q4 0 9.5 -11.5t3.5 -15.5q-25 -37 -25 -401v-224q0 -2 5 -4t7 0q176 104 277 105q143 0 231 -107q90 -100 90 -260q0 -252 -182 -383q-63 -47 -151 -80t-152 -33q-86 0 -182 29q-20 6 -42 6q-25 0 -52 -8q-4 0 -9.5 5t-5.5 7 q8 139 8 498q0 578 -10 686q-2 45 -43 57q-31 12 -102 19q-5 7 -5 22zM306 455q1 -160 5 -219q2 -80 35 -113q63 -53 168 -53q98 0 160 71q74 84 74 242q0 147 -66 242q-76 96 -199 96q-86 0 -153 -45q-16 -12 -21 -31q-3 -25 -3 -132v-58z" />
<glyph unicode="c" horiz-adv-x="829" d="M86 391q0 240 207 363q135 84 260 84q94 0 168 -31q51 -27 61 -53q0 -16 -4 -33q-8 -23 -31.5 -50.5t-37.5 -33.5q-4 -2 -10.5 -2t-10.5 2q-108 108 -223 108h-2q-109 0 -164 -80.5t-55 -195.5q0 -162 75 -252q86 -106 232 -106q127 0 233 98q10 0 11 -12q0 -45 -11 -60 q-68 -84 -158.5 -123t-166.5 -39q-188 0 -293 142q-80 114 -80 274z" />
<glyph unicode="d" horiz-adv-x="1017" d="M86 379q0 96 40 184t110 146q66 53 170 91t198 38q2 0 92 -9q8 0 9 9q0 305 -5 356q-6 53 -43 66q-39 12 -118 20q-6 8 -3 29.5t11 25.5q182 0 332 54q4 -2 8 -13.5t2 -15.5q-20 -33 -23 -154q-8 -221 -8 -588q0 -406 2 -450q0 -29 6 -44t13.5 -19.5t19.5 -6.5t35.5 -2 t58.5 2q2 -9 2 -17q0 -22 -12 -38q-43 -20 -136 -48t-130 -30q-10 0 -15 27q-4 33 -4 100q0 8 -10 8q-72 -51 -153.5 -85.5t-133.5 -34.5q-137 0 -223 108q-92 111 -92 291zM248 442q0 -160 76.5 -248t197.5 -88q92 0 160 56q16 16 16 43q2 35 4 185q1 75 1 129.5t-1 88.5 q-4 66 -45 94q-61 47 -168 48q-94 0 -153 -60q-88 -82 -88 -248z" />
<glyph unicode="e" horiz-adv-x="860" d="M86 399q0 250 180 371q104 68 221 68q133 0 202 -90.5t85 -200.5q4 -14 31 -23q2 -6 -5 -24.5t-12 -22.5q-123 -35 -536 -45q-12 -2 -12 -22q8 -127 84 -209q88 -90 223 -90q127 0 233 86q6 -6 8 -13q4 -33 -10 -55q-63 -72 -156.5 -113t-168.5 -41q-156 0 -250 99 q-117 116 -117 325zM244 524q0 -14 10 -14q22 -2 60 -2q48 0 123 3q134 5 165 11q10 10 10 19q-8 84 -59 151.5t-129 67.5q-74 0 -123 -63.5t-57 -172.5z" />
<glyph unicode="f" horiz-adv-x="536" d="M34 29q0 19 7 24l82 15q41 14 41 71q0 23 6 551q0 18 -12 19l-117 6q0 35 20 59q68 12 101 33q8 4 8 14q2 172 49 289t168 203q104 76 197 76q111 0 149 -66q2 -7 2 -12.5t-2 -10.5q-4 -18 -30.5 -62t-38.5 -52q-8 -6 -23 -2q-94 86 -170 86q-49 0 -84 -37 q-39 -41 -50 -128t-13 -235q0 -8 1 -25.5t1 -21.5q0 -14 12 -14q133 0 219 6q-14 -61 -18 -108q-33 0 -106 1t-97 1q-4 0 -8 -7.5t-4 -11.5q4 -487 8 -545q2 -61 59 -75q47 -10 109 -17q4 -6 2 -30.5t-8 -28.5q-16 0 -97.5 3t-148.5 3q-49 0 -120 -3t-87 -3q-7 8 -7 35z" />
<glyph unicode="g" horiz-adv-x="897" d="M49 -285q0 55 14 78q31 39 199 160q0 6 -2 6q-55 18 -90 55t-39 72q0 10 8 35q109 66 135 86q8 8 -2 12q-188 66 -188 291q0 150 115 238q45 35 123 63q73 27 125 27h8q80 0 182 -39q55 -20 117 -21q82 0 123 45q4 2 14 -4t12 -10q0 -18 -17.5 -58t-33.5 -57 q-24 -24 -68 -24h-4q-27 0 -49 2q-2 0 -4 -4t0 -6q16 -49 16 -101q0 -172 -120 -266q-96 -72 -217 -84q-27 0 -39 -4q-16 -2 -35 -16.5t-19 -36.5q0 -53 82 -62q16 -2 79 -6t101.5 -8t87 -11.5t70.5 -15.5q143 -51 144 -201q0 -102 -67 -193t-183 -149q-113 -57 -234 -57 q-147 0 -246 74q-98 79 -98 190zM197 -242q0 -80 67 -139q79 -65 207 -65h4q133 0 198.5 60t65.5 144q0 104 -104 146q-84 35 -252 35q-37 0 -74 -21q-112 -74 -112 -160zM240 557q0 -109 52 -188.5t150 -79.5q59 0 95 37q55 55 55 178q0 106 -49 182t-154 76 q-70 0 -109.5 -56.5t-39.5 -148.5z" />
<glyph unicode="h" horiz-adv-x="1013" d="M9 1290q0 26 7 31q193 16 308 68q14 -4 14 -29q-20 -41 -23 -193q-2 -127 -2 -450q0 -2 3 -3t8 1q160 123 278 123q121 0 187.5 -88t66.5 -240q0 -291 2 -381q0 -35 27 -51q23 -12 100 -25q3 -3 3 -15q0 -6 -1 -15q-2 -27 -10 -29q-10 0 -82 3t-123 3q-115 0 -194 -6 q-6 6 -6.5 29.5t3.5 29.5q59 8 82 15q25 8 32 27.5t9 78.5q2 92 2 164q0 169 -10 235q-10 55 -56 101.5t-134 46.5q-84 0 -160 -55q-25 -18 -25 -50q0 -397 4 -454q4 -51 13.5 -68.5t40.5 -27.5q66 -10 78 -13q8 -6 6 -29.5t-8 -29.5q-2 0 -73 3t-143 3q-61 0 -124.5 -3 t-71.5 -3q-6 6 -6 29.5t6 29.5q47 6 73.5 14.5t35 27t10.5 61.5q4 98 4 340q0 627 -6 702q-6 49 -39 55q-25 6 -99 15q-7 4 -7 22z" />
<glyph unicode="i" horiz-adv-x="487" d="M35 22.5q0 24.5 6 30.5q51 6 88 19q18 8 25.5 22.5t11.5 50.5q4 51 4 299q0 45 -1 112t-1 83q0 27 -14 43q-23 23 -99 49q-4 6 -1 25.5t9 23.5q133 4 267 60q0 -41 -1 -166t-1 -193q0 -250 2 -342q0 -55 43 -69q51 -12 86 -17q2 -5 2 -14q0 -7 -1 -17q-3 -24 -9 -28 q-12 0 -80 3t-129 3q-49 0 -120 -3t-81 -3q-6 4 -6 28.5zM146 1131q0 26 12 38q41 37 98 37q49 0 59 -16q20 -25 21 -60q0 -68 -43 -100q-8 -4 -45 -7q-12 -1 -22 -1q-19 0 -25 4q-44 21 -54 84q-1 8 -1 15v6z" />
<glyph unicode="j" horiz-adv-x="489" d="M-25 -492q0 5 2 9q106 72 153.5 191.5t47.5 322.5q0 578 -4 610q-4 45 -39 57q-27 10 -104 23q-8 8 -6 30.5t8 28.5q209 12 315 58q-6 -473 -6 -668q-4 -158 -18 -244q-20 -141 -111.5 -272t-179.5 -182q-27 2 -56 26q-2 5 -2 10zM148 1137q0 26 10 37q38 38 105 38h3 q53 0 64 -20q10 -14 10 -49q0 -66 -37 -101q-6 -6 -50 -13q-24 -4 -37 -4q-11 0 -15 3q-41 27 -51 84q-2 14 -2 25z" />
<glyph unicode="k" horiz-adv-x="917" d="M13 1298q0 28 5 33q201 14 304 58q4 0 10 -9.5t6 -13.5q-18 -33 -23 -182q-4 -164 -4 -744q49 10 97 49q55 45 116.5 118t67.5 100q4 23 -25 30q-61 12 -96 15q-4 8 -2 30.5t8 26.5q246 0 389 18q6 -6 6 -29.5t-6 -31.5q-121 -20 -174 -76l-203 -207q-2 -2 -2 -6t2 -6 q45 -72 153 -199t167 -176q35 -27 62.5 -34t89.5 -9q2 -4 2 -13q0 -7 -1 -17q-3 -25 -10 -29q-18 -4 -200 -4q-49 0 -93 33q-31 25 -76.5 82t-107 138t-92.5 119q-25 33 -72 33q0 -172 4 -252q0 -37 11.5 -52t40.5 -23q53 -10 84 -15q4 -6 2 -29.5t-11 -29.5q-12 0 -82.5 3 t-121.5 3q-66 0 -132.5 -3t-72.5 -3q-6 4 -7 29.5t7 29.5q61 10 76 15q43 12 45 67q4 63 4 395q0 627 -4 678q-4 45 -35 56q-20 6 -103 14q-3 5 -3 20z" />
<glyph unicode="l" horiz-adv-x="473" d="M11 1281q0 27 7 32q160 12 301 76q14 -4 15 -19q-18 -55 -19 -178q-2 -104 -2 -512q0 -434 6 -516q2 -45 10.5 -64.5t35.5 -27.5q33 -14 86 -19q2 -5 2 -13q0 -7 -1 -16q-3 -22 -10 -30q-10 0 -78.5 3t-132.5 3q-47 0 -121.5 -3t-80.5 -3q-14 37 0 59q66 10 90 21 q29 14 33 57q8 88 8 541q0 446 -6 508q-6 57 -31 63q-29 8 -107 19q-5 4 -5 19z" />
<glyph unicode="m" horiz-adv-x="1542" d="M35 24.5q0 24.5 8 28.5q51 8 78 17q25 8 33 25.5t10 54.5q6 113 6 462q0 41 -18 58q-25 23 -97 45q-4 6 -1 26.5t9 22.5q150 16 256 76l7 -11q0 -6 -1 -53t-1 -65q0 -4 4 -5t8 1q166 131 278 131q137 0 209 -136q4 -6 15 -2q174 137 288 138q119 0 186.5 -86t67.5 -244 q2 -111 2 -385q0 -31 21 -43q23 -14 108 -27q2 -3 2 -11t-2 -20q-4 -26 -10 -28q-12 0 -76.5 3t-111.5 3q-129 0 -207 -6q-4 4 -5 29.5t5 29.5q49 8 78 19q23 8 29 27.5t8 72.5q2 108 2 187q0 157 -9 198q-10 63 -53 110.5t-129 47.5q-92 0 -180 -74q-4 -2 -4 -14 q8 -51 8 -148q0 -315 2 -358q0 -35 33 -49q33 -10 88 -19q6 -6 3 -30.5t-9 -28.5q-172 6 -207 6q-33 0 -104.5 -3t-86.5 -3q-6 4 -6 28.5t6 30.5q70 12 82 17q35 10 37 69q5 58 6 183q0 21 -1 44q-1 159 -9 201q-29 152 -172 152q-84 0 -166 -64q-27 -23 -26 -49 q0 -430 2 -479q0 -49 43 -59q8 -2 19 -4.5t28.5 -5.5t30.5 -5q6 -6 4 -29.5t-9 -29.5q-18 0 -85.5 3t-114.5 3q-59 0 -121 -3t-80 -3q-8 6 -8 30.5z" />
<glyph unicode="n" horiz-adv-x="1024" d="M43 23.5q0 23.5 6 29.5q39 6 74 15q39 12 43 71q4 63 4 336q0 102 -4 164q-8 41 -107 78q-4 10 0 26.5t11 20.5q141 14 252 76q8 -8 8 -15q-4 -45 -4 -116q0 -8 10 -4q162 133 278 133q125 0 197 -107q53 -84 53 -242q0 -299 4 -370q0 -31 21 -39q33 -16 102 -27 q3 -7 4 -21q0 -28 -10 -38q-4 0 -68.5 3t-128.5 3q-55 0 -202 -6q-4 6 -5 29.5t5 29.5q59 6 84 15q35 12 37 84q2 104 2 182q0 157 -9 215q-10 82 -57 121q-51 47 -127 47q-94 0 -170 -66q-20 -20 -20 -73q0 -344 4 -439q2 -59 39 -69q25 -8 86 -17q4 -6 2 -28.5t-8 -30.5 q-6 0 -70 3t-131 3q-59 0 -128 -3t-71 -3q-6 6 -6 29.5z" />
<glyph unicode="o" horiz-adv-x="1007" d="M86 414q0 219 178 342q129 82 268 82q180 0 285 -117t105 -295q0 -254 -191 -375q-113 -76 -237 -76q-207 0 -307.5 129.5t-100.5 309.5zM260 465q0 -180 80 -293t205 -113q80 0 125 43q78 72 78 258q0 178 -78 288t-207 110q-57 0 -98 -29q-105 -67 -105 -264z" />
<glyph unicode="p" horiz-adv-x="1003" d="M5 -477q0 18 5 24l88 21q31 10 41.5 29.5t14.5 70.5q4 109 6 518v76v70q0 200 -4 284q-2 53 -31 70q-31 16 -96 27q-4 8 -3 27.5t7 25.5q141 20 274 94q1 1 2 1q2 0 7 -5q7 -6 8 -10q-6 -39 -7 -129q0 -2 4.5 -4t6.5 0q182 125 293 125q119 0 202 -95q96 -109 97 -268 q0 -231 -179 -377q-72 -57 -166 -90t-169 -33q-25 0 -82 13q-2 2 -6.5 -1t-4.5 -5q0 -211 6 -320q2 -66 62 -76q35 -8 123 -16q4 -8 2 -31.5t-10 -27.5h-82q-90 0 -167 -4.5t-153 -12.5t-84 -8q-5 11 -5 37zM313 217q2 -63 41 -94q61 -49 162 -49q80 0 143 55q94 78 95 264 q0 152 -70 240q-68 82 -174 82q-92 0 -174 -66q-20 -12 -21 -43q-2 -24 -2 -389z" />
<glyph unicode="q" horiz-adv-x="1003" d="M86 387q0 213 164 336q74 53 178 84t199 31q123 0 258 -41q-18 -43 -25 -101q-6 -104 -6 -297q0 -631 6 -725q4 -49 15.5 -66.5t46.5 -23.5q33 -8 96 -14q3 -4 3 -16q0 -6 -1 -14q-2 -24 -8 -29h-152q-94 -4 -202.5 -14.5t-127.5 -10.5q-6 6 -7 28.5t5 28.5q29 4 103 25 q29 10 42 29.5t17 68.5l6 402q0 2 -3 4t-5 0q-57 -37 -135 -67t-125 -30q-145 0 -243.5 116t-98.5 296zM252 455q0 -170 85 -264.5t216 -94.5q74 0 131 35q12 6 12 27q0 428 -8 493q0 25 -20 49q-66 47 -183 48q-104 0 -168.5 -77t-64.5 -216z" />
<glyph unicode="r" horiz-adv-x="663" d="M42 30q0 18 5 23q45 4 80 17q33 12 37 57q6 49 6 344q0 137 -2 162q-6 49 -113 86q0 39 11 45q57 6 132.5 28.5t116.5 47.5q10 0 11 -9q-4 -57 -4 -157q0 -4 3 -5t7 1q70 88 129 129q51 39 104 39q70 0 97 -45q2 -7 2 -15.5t-2 -17.5q-4 -18 -27 -64.5t-37 -64.5 q-8 -8 -16 -8q-76 63 -133 63q-55 0 -109 -86q-16 -33 -16 -70q0 -309 4 -391q4 -53 43 -65q47 -12 129 -21q4 -8 1 -30.5t-9 -28.5q-4 0 -98.5 3t-141.5 3q-94 0 -205 -6q-5 8 -5 36z" />
<glyph unicode="s" horiz-adv-x="706" d="M66 240q4 6 27.5 13t31.5 5q39 -143 121 -190q45 -25 102 -25q63 0 100 30.5t37 84.5q0 55 -34.5 91t-131.5 83q-123 61 -174 121.5t-51 142.5q0 102 79 172t222 70q63 0 133 -13q33 -6 82 -12q-12 -55 -24 -213q-4 -6 -26.5 -7t-29.5 3q-16 125 -69 156q-38 24 -96 24 h-5q-53 0 -90 -32.5t-37 -86t38 -92.5t153 -92q123 -55 168 -111.5t45 -134.5q0 -111 -91 -181.5t-231 -70.5q-125 0 -215 39q-28 97 -34 226z" />
<glyph unicode="t" horiz-adv-x="602" d="M35 717q-2 8 5 33.5t13 33.5q72 10 97 23q8 0 8 14v174q88 45 131 95q8 2 20 3h8q6 0 9 -1q-10 -88 -11 -271q0 -12 9 -12q172 0 249 10q-16 -74 -18 -112q-23 0 -106.5 1t-126.5 1q-8 0 -9 -11q-2 -92 -2 -186t2 -190q0 -109 13 -148q27 -80 120 -80q70 0 127 35 q1 -2 1 -9.5t-1 -21.5q-2 -27 -6 -32q-72 -90 -202 -91q-127 0 -181 99q-28 51 -28 221v12q0 63 1 204.5t1 178.5q0 14 -13 19z" />
<glyph unicode="u" horiz-adv-x="997" d="M25 739q-1 3 -1 8q0 9 3 23q4 21 10 25q199 4 285 32q-12 -102 -13 -399q0 -168 10 -209q29 -119 168 -119q92 0 168 64q18 16 23 49q2 24 2 135t-2 309q-4 49 -39 60q-18 6 -131 22q-4 10 0 31t10 25q215 0 326 28q-2 -16 -6 -178l-2 -463q2 -74 45 -76q12 0 86 5 q1 -5 1 -13t-1 -19q-2 -22 -9 -28q-113 -45 -266 -84q-8 0 -12 19q-2 23 -2 114q0 4 -5 5t-7 -1q-154 -129 -271 -129q-240 0 -243 277v399q-4 57 -33 70q-16 6 -94 18z" />
<glyph unicode="v" horiz-adv-x="862" d="M-19 771q1 7 2 17q3 23 7 27q10 0 79.5 -3t120.5 -3q80 0 197 6q8 -4 8 -27.5t-4 -31.5q-51 -6 -80 -17q-25 -8 -16 -30q16 -53 92 -257t90 -235q4 -6 10 0q117 283 162 428q8 27 8 47q0 34 -24 45q-31 12 -92 19q-4 8 -1 32.5t9 26.5q4 0 70.5 -3t113.5 -3q94 0 168 6 q5 -4 5 -22q0 -29 -5 -37q-59 -10 -74 -15q-47 -16 -79 -92q-63 -137 -195 -465q-37 -92 -68 -194q-25 2 -45 1q-30 0 -51 -3q-27 92 -59 180q-86 231 -166 428q-35 88 -50.5 109.5t-50.5 33.5q-27 8 -79 17q-2 6 -3 15z" />
<glyph unicode="w" horiz-adv-x="1308" d="M-21 777q0 29 9 38q8 0 75.5 -3t126.5 -3q92 0 209 6q6 -4 6.5 -27.5t-4.5 -31.5q-49 -8 -79 -17q-29 -10 -21 -39q12 -55 65.5 -237t75.5 -246q8 0 9 2q147 365 196 545q22 -4 44 -4q28 0 57 6q10 -47 53 -166q84 -244 143 -389h8q31 78 85.5 240.5t66.5 222.5 q4 29 -2 42t-33 21t-94 19q-4 10 -1 31.5t9 27.5q10 0 76.5 -3t105.5 -3q61 0 178 6q7 -9 7 -32q0 -19 -7 -27q-35 -6 -55 -15q-39 -12 -57.5 -31.5t-36.5 -62.5q-117 -293 -240 -657q-21 4 -43 3q-28 0 -57 -5q-25 86 -98.5 285.5t-98.5 256.5q-2 2 -5 1t-5 -3 q-12 -31 -94 -241.5t-111 -296.5q-25 4 -49 4l-49 -4q-104 397 -194 631q-25 66 -40.5 89t-48.5 33q-33 8 -77 13q-5 8 -5 21z" />
<glyph unicode="x" horiz-adv-x="817" d="M-32 29q0 18 5 24q90 12 118 27.5t75 73.5q98 123 168 229q4 8 0 16q-92 162 -144 246q-43 66 -73.5 83t-118.5 28q-2 10 0 33.5t8 25.5q18 0 88 -3t123 -3q98 0 178 6q4 -4 6 -27.5t-2 -31.5q-57 -12 -59 -13q-20 -6 -10 -28q57 -113 112 -201q2 -2 5.5 -2t5.5 2 q92 131 116 188q14 33 -16 41q-25 6 -72 13q-4 8 -3 30.5t7 28.5q12 0 68.5 -3t89.5 -3q66 0 176 6q6 -6 7 -28.5t-3 -30.5q-86 -14 -114.5 -30.5t-79.5 -82.5q-33 -43 -133 -190q-6 -10 0 -17q72 -133 127 -215q72 -111 102.5 -133t132.5 -35q3 -5 3 -18q0 -6 -1 -13 q-2 -24 -10 -28q-16 0 -90 3t-117 3q-94 0 -205 -6q-6 6 -8 28.5t2 30.5q53 8 66 15q25 12 10 34q-45 88 -123 213q-2 4 -6 4t-6 -4q-96 -143 -127 -202q-16 -33 18 -43q23 -8 76 -17q4 -8 1 -30.5t-9 -28.5q-16 0 -83 3t-108 3q-74 0 -166 -6q-7 7 -7 35z" />
<glyph unicode="y" horiz-adv-x="882" d="M-19 774q0 6 1 14q2 25 8 27q12 0 79.5 -3t119 -3t126 3t82.5 3q6 -4 7.5 -27.5t-3.5 -31.5q-70 -14 -75 -17q-23 -8 -17 -34q25 -80 98.5 -273.5t86.5 -218.5h8q145 311 168 467q1 7 1 14q0 34 -36 45q-33 10 -90 17q-4 10 -1 31.5t9 27.5q6 0 70.5 -3t105.5 -3 q18 0 191 6q6 -6 6 -28.5t-4 -30.5q-49 -6 -74 -17q-53 -14 -80 -92q-221 -582 -483 -1036q-49 -86 -64 -115l-14 -8q-23 4 -57.5 22.5t-49.5 32.5q-2 4 -3 16.5t1 16.5q217 270 301 449q0 4 -16 36q-129 334 -197 496q-41 102 -65.5 138t-67.5 48q-47 10 -69 13q-3 5 -3 18 z" />
<glyph unicode="z" horiz-adv-x="792" d="M49 571q35 141 49 258q57 -20 144 -20h284q111 0 172 4q6 -2 7 -33q-47 -94 -410 -684q-2 -4 -1 -9t5 -5q76 -16 266 -16q25 0 64 46t82 142q12 12 57 12q6 -4 6 -6q-23 -123 -72 -229q-20 -43 -59 -43q-68 0 -294 7q-151 5 -219 5h-21h-27q-10 10 -10 37 q348 532 430 692q2 4 1 7t-3 3q-207 0 -248 -6q-41 -4 -70.5 -36.5t-72.5 -143.5q-8 -2 -30 3t-30 15z" />
<glyph unicode="{" horiz-adv-x="868" d="M102 530q-4 8 2.5 37t14.5 31q109 2 160 43t53 108.5t-6 161.5q-14 137 -15 189q0 393 414 424q6 -2 9 -28t-1 -32q-158 -25 -223.5 -95.5t-65.5 -194.5q0 -47 13.5 -164t13.5 -170q0 -33 -2 -57.5t-14.5 -61.5t-35 -62.5t-64.5 -51t-101 -40.5q-4 -6 0 -10 q80 -8 131 -36.5t70.5 -74t25.5 -79t6 -80.5q0 -66 -14 -182.5t-14 -163.5q0 -221 293 -260q4 -6 -2.5 -32t-12.5 -30q-170 -4 -289.5 78t-119.5 242q0 23 14 208q8 111 12 189t-53.5 127t-198.5 67z" />
<glyph unicode="|" horiz-adv-x="591" d="M229 -635v2089h133v-2089h-133z" />
<glyph unicode="}" horiz-adv-x="876" d="M115 1454q-2 6 4 30.5t10 28.5q172 4 292 -75.5t120 -239.5q0 -57 -15 -209q-8 -111 -8 -192.5t59.5 -135t192.5 -69.5q4 -10 -2 -36t-14 -30q-109 -2 -161 -43t-56.5 -109.5t6.5 -162.5q14 -129 14 -176q0 -207 -103.5 -308.5t-310.5 -117.5q-6 4 -10 28.5t0 30.5 q160 25 225.5 94.5t65.5 194.5q0 47 -14.5 159.5t-14.5 166.5q0 213 219 274q8 8 0 12q-80 8 -131 37t-71.5 73t-25.5 76.5t-5 80.5q0 66 13.5 190.5t13.5 169.5q0 223 -293 258z" />
<glyph unicode="~" horiz-adv-x="1120" d="M90 367q0 14 9.5 43.5t13.5 35.5q41 57 137 113.5t160 56.5q66 0 202 -61q102 -53 162 -53q121 0 236 131q2 2 11 0t11 -6q0 -35 -16 -74q-35 -61 -120 -119.5t-179 -58.5q-57 0 -205 74q-86 43 -164 43q-51 0 -128 -48.5t-116 -89.5q-2 -2 -8 3.5t-6 9.5z" />
<glyph unicode="&#xa1;" horiz-adv-x="563" d="M147 737q0 45 31 78q35 35 90 35q43 0 74 -29q31 -37 31 -84q0 -51 -33 -84q-33 -31 -82 -30q-47 0 -76 26q-35 33 -35 88zM156 -420q0 20 13 164.5t32.5 355.5t29.5 338q6 4 33 -2t31 -12q14 -147 47 -445t35 -339q2 -12 -7.5 -30t-21.5 -22q-23 -8 -77 -17t-76 -9 q-33 0 -39 18z" />
<glyph unicode="&#xa2;" d="M123 559q0 113 55 210t162 157q96 55 215 69l14 152q35 16 74 12l-16 -155q92 0 164 -27q57 -25 69 -51q4 -12 -4 -35q-33 -53 -61 -68q-4 -2 -15 -2q-84 78 -155 94q-8 0 -11 -8l-61 -626q16 -2 49 -2q141 0 252 102q2 -2 5 -26.5t1 -32.5q-123 -143 -313 -170 q-6 0 -10 -9l-15 -149q-6 -4 -34.5 -7t-36.5 -1l18 159q-2 10 -8 11q-160 23 -252 137q-86 102 -86 266zM285 623q0 -258 198 -328l62 618q0 10 -6 11q-115 -4 -184.5 -90t-69.5 -211z" />
<glyph unicode="&#xa3;" d="M47 -16q0 8 12.5 51t18.5 49q16 14 80 55q88 49 69 408q-125 0 -149 2q-2 2 -2 14q2 10 12 34t16 30q6 0 47.5 -1t75.5 -1q-4 291 101 428q78 98 173 145t140 47q49 0 90 -12t59.5 -27.5t18.5 -27.5q-4 -57 -37 -115q-8 -12 -20 -6q-92 88 -199 88q-66 0 -94 -53 q-33 -61 -41 -163t-8 -294q0 -10 10 -10q209 0 293 6q4 -14 -11 -37q-27 -31 -73 -41q-49 -8 -213 -8q-10 0 -10 -13q-8 -78 -18.5 -128t-43.5 -119.5t-88 -126.5q59 10 213 -19q133 -27 178 -26q98 0 142.5 34.5t93.5 167.5q2 2 9 3t9 -1q18 -29 23 -53 q-47 -158 -141.5 -237.5t-161.5 -79.5q-70 0 -224 53q-147 45 -188 45q-55 0 -135 -78q-21 1 -27 17z" />
<glyph unicode="&#xa4;" d="M98 162q-12 82 2 98q8 12 95 109v14q-43 86 -43 182q0 133 65 223q-53 57 -104 121q-6 6 -7 25q0 8 17.5 46t28.5 48q2 2 10 2t12 -2q76 -98 123 -145q6 -6 16 0q90 68 213 67q90 0 174 -51q6 -6 13 0q12 14 30.5 34.5t28.5 31.5l22 21q11 11 19 18q6 2 46 7t48 3 q8 0 8 -17q-70 -74 -145 -172q59 -94 59 -207q0 -125 -75 -231q-6 -10 0 -18q90 -109 147 -162q2 -2 -1 -11.5t-7 -11.5q-96 -16 -115 0q-70 55 -119 113q-86 -70 -202.5 -70t-198.5 72q-27 -23 -81 -81t-56 -60q-4 -2 -11.5 -1t-11.5 5zM272 612q0 -139 70 -210.5 t172 -71.5q193 0 193 241q0 119 -67 203t-171 84q-96 0 -146.5 -70t-50.5 -176z" />
<glyph unicode="&#xa5;" d="M-1 1196.5q-1 20.5 5 28.5q12 0 85 -3t126 -3q111 0 209 8q4 -6 5 -29.5t-3 -30.5q-57 -12 -66 -14q-20 -8 -21 -21.5t11 -35.5q135 -307 178 -383q0 -2 4.5 -2t6.5 2q125 244 174 368q25 57 -33 72l-86 14q-2 6 1 32t7 28q14 0 78.5 -4t103.5 -4q55 0 183 8 q4 -6 4 -29.5t-4 -30.5q-6 -2 -26.5 -5t-35.5 -7q-74 -18 -131 -125q-131 -246 -199 -393q-10 -14 7 -14q39 0 88 1t74.5 2t31.5 1q4 -23 -10 -68h-191q-8 0 -8 -10q0 -18 -1 -58t-1 -61q0 -10 8 -10q37 0 113 1t80 1q4 -18 -10 -68h-181q-8 0 -8 -8q0 -33 1 -92t1 -76 q2 -59 12.5 -79.5t51.5 -28.5q51 -10 104 -17q4 -6 1 -29.5t-7 -29.5q-33 0 -114.5 3t-133.5 3q-53 0 -131 -3t-121 -3q-4 8 -4 30.5t4 28.5q86 10 109 15q37 8 48 29.5t13 72.5q4 78 5 174q0 10 -11 10q-55 0 -117.5 -1t-76.5 -1q4 49 14 70q2 0 57.5 -1t126.5 -1q6 0 7 8 v119q0 12 -11 12q-63 0 -117.5 -1t-60.5 -1q6 59 14 68h158q4 0 6 5t0 7q-70 152 -178 362q-49 98 -72.5 121t-72.5 35q-8 2 -68 12q-4 9 -5 29.5z" />
<glyph unicode="&#xa6;" horiz-adv-x="591" d="M227 260h138v-727h-138v727zM227 580v712h138v-712h-138z" />
<glyph unicode="&#xa7;" horiz-adv-x="962" d="M90 686q0 215 135 377q51 59 131 105t150 46q129 0 223 -88q29 -33 29 -57q0 -37 -35 -84q0 -4 -12 -4q-33 31 -107 78t-104 47q-39 0 -43 -51q0 -55 32 -121q55 -115 209 -359q127 -195 127 -346q0 -135 -75 -270q-61 -106 -163 -178t-179 -72q-150 0 -252 98 q-31 35 -31 58q0 37 35 102q4 4 16 4q61 -76 139 -112.5t117 -36.5q33 0 33 43q0 53 -47 131q-74 119 -154 240q-174 270 -174 450zM199 803q0 -180 149 -426q10 -16 47 -72.5t59.5 -92.5t51.5 -88t43 -96t14 -79q4 -55 -18 -113q74 35 118 112t44 167q0 115 -36 203 t-114 214q-4 6 -39 60.5t-45 72t-36.5 66.5t-37 79t-21.5 71t-13 77q-6 76 22 146q-80 -23 -134 -107.5t-54 -193.5z" />
<glyph unicode="&#xa8;" horiz-adv-x="819" d="M154 1110q0 45 10 57q33 33 86 33q49 0 59 -16q18 -23 19 -56q0 -61 -41 -92q-6 -4 -41 -7t-45 3q-39 21 -47 78zM492 1110q0 45 10 57q33 33 88 33q47 0 57 -16q16 -20 17 -56q0 -63 -39 -92q-6 -4 -41 -6t-45 2q-39 21 -47 78z" />
<glyph unicode="&#xa9;" horiz-adv-x="1517" d="M102 633q0 272 191.5 463.5t466.5 191.5q283 0 469 -189.5t186 -465.5q0 -279 -191.5 -469.5t-463.5 -190.5q-281 0 -469.5 187.5t-188.5 472.5zM184 633q0 -244 168 -417t408 -173q254 0 413.5 169t159.5 421q0 246 -168 419t-405 173q-240 0 -408 -172t-168 -420z M383 637q0 158 112.5 273.5t323.5 115.5q53 0 139 -10q66 -8 105 -6q-12 -76 -16 -211q-4 -4 -26 -5t-26 3q-14 106 -65 141q-49 35 -137 35q-125 0 -187.5 -90t-62.5 -234q0 -133 72.5 -235.5t211.5 -102.5q104 0 215 142q6 -2 18.5 -12.5t14.5 -16.5q-10 -37 -46 -88 t-52 -64q-106 -27 -172 -26q-197 0 -309.5 105.5t-112.5 285.5z" />
<glyph unicode="&#xaa;" horiz-adv-x="593" d="M51 604q0 18 10.5 48t16.5 36q25 14 138.5 48t137.5 46q4 2 11 15v41q0 47 -23 77q-33 53 -102 54q-43 0 -60 -17q-23 -14 -63 -96q0 -2 -6.5 0t-13.5 5t-14 7t-11 7.5t-4 5.5q2 16 14 49t20 37q45 33 104.5 57.5t90.5 24.5q102 0 154 -78q35 -57 34 -144 q0 -37 -4 -118.5t-4 -110.5q0 -61 49 -61q31 0 56 8q0 -45 -9 -53q-49 -51 -124 -52q-55 0 -76 39q-8 12 -13 35q0 2 -3 3t-5 -1q-125 -76 -172 -76q-43 0 -80 37q-49 49 -49 127zM176 625q0 -41 26.5 -64.5t71.5 -23.5q37 0 66 22q14 8 18 35q4 41 4 133q0 6 -6 6 q-143 -53 -163 -65q-17 -10 -17 -43z" />
<glyph unicode="&#xab;" horiz-adv-x="1308" d="M150 369q0 33 14 47q129 59 295 161.5t223 151.5l12 -12q0 -16 -6 -42t-10 -30q-29 -35 -140.5 -113.5t-195.5 -130.5q-6 -6 0 -12q70 -39 180.5 -122t147.5 -122q14 -20 8 -75q-6 -10 -14 -11q-45 43 -236.5 160t-277.5 150zM590 367q0 35 14 49q137 61 310 167.5 t233 159.5q8 -4 12 -14q0 -14 -7 -40.5t-11 -31.5q-55 -66 -361 -256q-8 -4 0 -12q80 -45 199 -131t154 -125q14 -23 8 -78q-6 -10 -15 -10q-47 45 -248.5 167t-287.5 155z" />
<glyph unicode="&#xac;" horiz-adv-x="1120" d="M102 596q16 80 35 106q23 -4 389 -4h163q75 0 123 1t82 1h52h21q2 0 7 -5t5 -9q0 -10 -1 -160.5t-1 -226.5q0 -133 4 -186q-72 -23 -107 -23q-2 0 -8 6t-6 10q0 78 -2 249t-2 182q0 49 -25 49h-657q-72 0 -72 10z" />
<glyph unicode="&#xad;" horiz-adv-x="585" d="M76 377q2 25 11 63.5t15 38.5q109 0 406 10v-20q-2 -20 -13.5 -57t-17.5 -39q-12 -6 -186 -11.5t-213 -3.5z" />
<glyph unicode="&#xae;" horiz-adv-x="624" d="M37 975q0 115 81 196.5t193 81.5q119 0 198 -78.5t79 -199.5t-80 -200t-197 -79q-119 0 -196.5 79t-77.5 200zM90 975q0 -96 65.5 -164t157.5 -68q94 0 158 64.5t64 167.5q0 96 -64.5 164.5t-159.5 68.5q-92 0 -156.5 -67.5t-64.5 -165.5zM174 846q-4 14 0 22 q31 4 38 9.5t7 19.5v168q0 14 -6 17t-35 8q-2 2 -2 15t4 13q8 0 28.5 -1t35.5 -1h92q86 0 86 -69q0 -49 -60 -70q41 -63 62 -84q23 -23 49 -25q2 -4 0 -14t-6 -12q-31 -6 -72 6q-18 2 -30 22q-6 6 -52 78q-8 14 -32 15v-64q0 -14 8 -19.5t37 -7.5q2 -4 2 -14t-2 -12 q-4 0 -32 1t-42 1q-18 0 -46 -1t-32 -1zM281 989q41 0 57 6q23 12 22 39q0 55 -63 56q-16 0 -16 -17v-84z" />
<glyph unicode="&#xaf;" horiz-adv-x="819" d="M182 1030q2 14 16.5 57t18.5 50q25 -4 92 -4h324q0 -20 -12.5 -59.5t-18.5 -41.5q-18 -4 -354 -4q-58 0 -66 2z" />
<glyph unicode="&#xb0;" horiz-adv-x="602" d="M59 985q0 117 71 181.5t173 64.5q111 0 171.5 -67.5t60.5 -174.5q0 -100 -70 -165.5t-168 -65.5q-100 0 -169 62.5t-69 164.5zM150 999q0 -76 45 -113.5t106 -37.5q147 0 148 139q0 61 -42 107.5t-114 46.5q-59 0 -101 -41.5t-42 -100.5z" />
<glyph unicode="&#xb1;" horiz-adv-x="1120" d="M90 43q6 59 25 96q10 -2 233 -2l678 -2q2 0 4 -7t0 -11q0 -14 -10 -51t-21 -39l-903 -2q-6 0 -6 18zM90 651q6 55 25 99q14 -4 235 -5h146v144q0 168 -4 225q14 6 55 16.5t49 10.5q12 0 12 -72q0 -184 -2 -305q0 -18 12 -19h408q6 -6 6 -22q-16 -84 -33 -86h-74 q-65 0 -158 -1t-149 -1q-12 0 -12 -14q0 -344 -2 -361q-6 -20 -92 -41q-16 2 -16 6v410q-150 -2 -400 -2q-6 0 -6 18z" />
<glyph unicode="&#xb2;" horiz-adv-x="684" d="M51 1374q39 68 112 120t154 52q94 0 158 -66.5t64 -166.5q0 -131 -142 -273q-10 -10 -157 -151q-2 -4 -1 -7t5 -3q84 -10 252 -7q45 0 100 121q6 2 24.5 -5t22.5 -13q-8 -37 -29.5 -106.5t-33.5 -88.5q-12 -25 -54 -24q-43 0 -187 3t-203.5 3t-76.5 -2q-2 2 -4 18.5 t0 22.5q16 14 48 40.5t47.5 40t40 37t48 48t52.5 57.5q109 125 108 248q0 66 -36.5 113t-106.5 47q-92 0 -176 -97q-6 -2 -18.5 16.5t-10.5 22.5z" />
<glyph unicode="&#xb3;" horiz-adv-x="681" d="M61 899q2 8 18.5 16.5t22.5 6.5q35 -76 80 -103q53 -33 125 -33q68 0 112 38t44 114t-54.5 127t-144.5 51q-27 0 -47 -4q-4 4 4 28.5t12 28.5q172 33 173 150q0 55 -36 91t-94 36q-80 0 -157 -74q-8 0 -18.5 16.5t-8.5 22.5q119 137 244 137q82 0 137 -51t57 -123 q0 -102 -112 -170q-4 -4 0 -6q78 -23 131 -74t53 -129q0 -133 -137 -215q-96 -61 -215 -61q-76 0 -117 20q-25 10 -45 45q-21 49 -27 115z" />
<glyph unicode="&#xb4;" horiz-adv-x="819" d="M344 936q104 256 131 307q16 8 78.5 14.5t77.5 2.5q8 -4 8 -23q-20 -37 -114.5 -161t-135.5 -171q-6 0 -24.5 12.5t-20.5 18.5z" />
<glyph unicode="&#xb5;" horiz-adv-x="942" d="M139 784q10 10 62.5 31t83.5 23q10 0 26 -4q-18 -322 -18 -572q0 -47 8 -65q25 -70 102 -70q66 0 127.5 55.5t98.5 173.5q14 37 14 90q2 254 0 340q12 14 63.5 32t81.5 20q2 -2 10.5 -4.5t12.5 -4.5q-29 -236 -29 -421v-99q0 -96 13.5 -135t46.5 -39q49 0 104 37 q2 -2 4 -20.5t0 -26.5q-25 -66 -84 -109t-112 -43q-51 0 -79 55.5t-28 204.5h-6q-68 -127 -150.5 -193.5t-132.5 -66.5q-72 0 -104 60q-10 -154 -4 -240q8 -100 54 -147t155 -78q2 -6 -2 -22.5t-11 -22.5q-23 -23 -77 -42.5t-93 -19.5q-106 0 -118 263q-6 127 -11 505 q0 264 -8 555z" />
<glyph unicode="&#xb6;" horiz-adv-x="1179" d="M94 760q0 109 41 196.5t110.5 142t147.5 86.5t164 44q78 12 183.5 19t209 12.5t131.5 7.5q6 -8 5 -31t-5 -33q-6 0 -52 -6t-66 -12q-37 -10 -51.5 -30.5t-23.5 -109t-7 -276.5v-304v-304q0 -152 -27 -267.5t-65.5 -180t-90 -104.5t-93.5 -52.5t-83 -12.5q-117 0 -155 76 q-23 51 -23 133l18 29q106 -90 236 -90q115 0 147.5 118.5t28.5 464.5q-92 -43 -178 -45q-233 29 -367.5 170.5t-134.5 358.5zM547 754q0 -164 54 -273.5t171 -126.5q-10 276 -10 539q0 213 24 266q-121 -10 -180 -105t-59 -300z" />
<glyph unicode="&#xb7;" horiz-adv-x="438" d="M104 387q0 49 37 86q39 35 80 35q39 0 78 -31q37 -33 37 -92q0 -49 -33 -82q-35 -35 -88 -35q-45 0 -76 33q-35 33 -35 86z" />
<glyph unicode="&#xb8;" horiz-adv-x="813" d="M242 -375q-10 33 6 49q55 -29 123 -28q35 0 59.5 18.5t24.5 46.5q0 70 -146 121q0 12 2 16q2 2 26.5 36t55.5 74t43 52h62l-64 -90q43 -23 86 -57q47 -41 47 -99q0 -82 -80.5 -138t-140.5 -56q-67 0 -104 55z" />
<glyph unicode="&#xb9;" horiz-adv-x="677" d="M127 782.5q0 20.5 2 24.5l86 14q51 10 51 72q4 127 4 262q2 178 -2 238q-4 37 -35 43q-23 6 -81 10q-2 4 0 24.5t6 24.5q141 8 235 53q16 0 17 -4q-6 -70 -7 -311q0 -236 5 -334q2 -63 43 -74q2 0 92 -16q4 -2 2 -26.5t-6 -26.5q-18 0 -89 3t-120 3t-114.5 -3t-86.5 -3 q-2 6 -2 26.5z" />
<glyph unicode="&#xba;" horiz-adv-x="727" d="M59 750q0 158 125 241q90 59 199 60q127 0 206 -84t79 -207q0 -178 -136 -266q-78 -51 -174 -52q-150 0 -224.5 90.5t-74.5 217.5zM197 784q0 -125 54 -200.5t140 -75.5q139 0 139 205q0 127 -53 200.5t-143 73.5q-59 0 -98 -49.5t-39 -153.5z" />
<glyph unicode="&#xbb;" horiz-adv-x="1306" d="M147 57q0 14 7.5 42t11.5 32q53 57 360 254q4 2 5 6t-3 6q-78 43 -198.5 131t-155.5 127q-6 8 -8 36t0 40q4 8 14 12q45 -45 248 -167.5t289 -155.5q0 -35 -15 -49q-133 -59 -307 -167t-235 -159q-7 0 -13 12zM612 70q6 57 17 73q33 35 145.5 115t190.5 127q8 8 0 12 q-72 41 -182.5 124t-145.5 122q-8 14 -8 74q4 6 14 12q45 -45 237.5 -161.5t276.5 -147.5q0 -37 -14 -47q-127 -55 -293 -158.5t-225 -155.5q-7 1 -13 11z" />
<glyph unicode="&#xbc;" horiz-adv-x="1613" d="M113 479.5q0 20.5 2 24.5l86 14q51 10 51 72q4 127 4 262q2 178 -2 238q-4 37 -35 43q-23 6 -82 10q-2 4 0 24.5t6 24.5q141 8 236 53q16 0 16 -4q-6 -70 -6 -311q0 -236 4 -334q2 -63 43 -74q2 0 92 -16q4 -2 2 -26.5t-6 -26.5q-18 0 -88.5 3t-120 3t-115 -3t-85.5 -3 q-2 6 -2 26.5zM358 -80q8 20 399.5 697t397.5 683q2 2 32 1t38 -5q2 -2 2 -10q-14 -20 -401.5 -693t-415.5 -718q-2 -2 -7.5 -4t-7.5 0q-37 33 -37 49zM877 213q0 33 6 51q47 66 206.5 272.5t174.5 225.5q6 2 41.5 6t40.5 2v-463q0 -8 6 -8q29 0 85 1t70 1q-16 -43 -16 -90 q-16 0 -63.5 1t-73.5 1q-6 0 -6 -8l2 -240q-98 -6 -136 -14l7 254q0 6 -7 6l-153 2h-184zM985 303q0 -4 2 -6h225q8 0 9 6l4 320h-6q-33 -41 -126.5 -167t-107.5 -153z" />
<glyph unicode="&#xbd;" horiz-adv-x="1613" d="M106 479.5q0 20.5 3 24.5l86 14q51 10 51 72q4 127 4 262q2 178 -2 238q-4 37 -35 43q-23 6 -82 10q-2 4 0 24.5t6 24.5q141 8 236 53q16 0 16 -4q-6 -70 -6 -311q0 -236 4 -334q2 -63 43 -74q2 0 92 -16q4 -2 2 -26.5t-6 -26.5q-18 0 -89 3t-120 3t-114.5 -3t-85.5 -3 q-3 6 -3 26.5zM340 -80q8 20 399 697t398 683q2 2 31.5 1t37.5 -5q2 -2 2 -10q-14 -20 -401 -693t-416 -718q-2 -2 -7 -4t-7 0q-37 33 -37 49zM944 600q39 68 111.5 120t154.5 52q94 0 158 -66.5t64 -166.5q0 -131 -142 -273q-10 -10 -157 -151q-2 -4 -1 -7.5t5 -3.5 q84 -10 252 -6q45 0 100 121q6 2 24.5 -5t22.5 -13q-8 -37 -29.5 -106.5t-33.5 -88.5q-12 -25 -54 -24q-43 0 -187.5 3t-203.5 3t-76 -2q-2 2 -4 18t0 23q16 14 48 40.5t47.5 40t40 37t48 48t52.5 57.5q109 125 108 248q0 66 -36.5 112.5t-106.5 46.5q-92 0 -176 -96 q-6 -2 -18.5 16.5t-10.5 22.5z" />
<glyph unicode="&#xbe;" horiz-adv-x="1613" d="M106 596q2 8 18.5 16.5t22.5 5.5q35 -76 80 -102q53 -33 125 -33q68 0 112 38t44 114t-54.5 127t-144.5 51q-27 0 -47 -4q-4 4 4 28.5t13 28.5q172 33 172 150q0 55 -36 91t-93 36q-80 0 -158 -74q-8 0 -18.5 16.5t-8.5 22.5q119 137 244 137q82 0 137 -51t57 -123 q0 -102 -112 -170q-4 -4 0 -6q78 -23 131 -74t53 -129q0 -133 -137 -215q-96 -61 -215 -61q-76 0 -117 20q-25 10 -45 45q-21 49 -27 115zM395 -80q8 20 399.5 697t397.5 683q2 2 31.5 1t38.5 -5q2 -2 2 -10q-14 -20 -401.5 -693t-416.5 -718q-2 -2 -7 -4t-7 0 q-37 33 -37 49zM895 213q0 33 6 51q47 66 207 272.5t174 225.5q6 2 42 6t40 2v-463q0 -8 6 -8q29 0 85 1t71 1q-16 -43 -17 -90q-16 0 -63 1t-74 1q-6 0 -6 -8l2 -240q-98 -6 -135 -14l6 254q0 6 -6 6l-154 2h-184zM1004 303q0 -4 2 -6h225q8 0 8 6l4 320h-6 q-33 -41 -126 -167t-107 -153z" />
<glyph unicode="&#xbf;" horiz-adv-x="696" d="M96 -125q0 96 45 141q27 29 114 93.5t101 76.5q29 23 29 54q0 45 -76 114q-4 2 -2 12.5t6 14.5q10 12 41 27.5t45 19.5q23 6 43 0q43 -18 70 -56t27 -77q0 -37 -23 -64q-18 -18 -118.5 -95t-123.5 -97q-47 -45 -47 -98q0 -74 73 -139.5t189 -84.5l66 -6q23 -4 23 -30 q0 -14 -17.5 -49t-34 -55.5t-65.5 -20.5q-131 0 -244 90q-121 98 -121 229zM262 731q0 45 33 78q31 33 90 33q43 0 74 -29q31 -37 30 -82q0 -49 -32 -84q-35 -31 -84 -31q-43 0 -76 27q-35 35 -35 88z" />
<glyph unicode="&#xc0;" horiz-adv-x="1255" d="M-51 23.5q0 23.5 6 29.5q113 14 151.5 44t88.5 147q174 416 342 901q29 76 34 117h23q25 -2 45 -2q18 0 33.5 1t23.5 1h11q16 -63 32 -107q270 -772 340 -936q45 -102 78 -126.5t143 -39.5q6 -6 3 -29.5t-7 -29.5q-160 6 -249 6q-139 0 -269 -6q-4 6 -6 29.5t4 29.5 q76 10 113 23q35 16 22 51q-41 150 -123 352q-4 14 -18 15h-192h-170q-14 0 -21 -19q-106 -289 -111 -332q-2 -31 10.5 -46t55.5 -27q41 -10 98 -17q4 -6 2 -29.5t-6 -29.5q-12 0 -104 3t-158 3q-68 0 -138.5 -3t-80.5 -3q-6 6 -6 29.5zM365 1534q0 10 2 12q14 14 63 42 t72 30q27 -18 120 -116.5t117 -133.5q4 -4 -14 -24.5t-25 -20.5q-10 0 -160.5 88t-172.5 109q-2 4 -2 14zM432 604q0 -12 8 -14q20 -2 164 -2q117 0 137 2q4 0 6.5 5t0.5 11q-86 264 -152 443q-10 0 -10 -2q-10 -29 -72 -204.5t-82 -238.5z" />
<glyph unicode="&#xc1;" horiz-adv-x="1255" d="M-51 23.5q0 23.5 6 29.5q113 14 151.5 44t88.5 147q174 416 342 901q29 76 34 117h23q25 -2 45 -2q18 0 33.5 1t23.5 1h11q16 -63 32 -107q270 -772 340 -936q45 -102 78 -126.5t143 -39.5q6 -6 3 -29.5t-7 -29.5q-160 6 -249 6q-139 0 -269 -6q-4 6 -6 29.5t4 29.5 q76 10 113 23q35 16 22 51q-41 150 -123 352q-4 14 -18 15h-192h-170q-14 0 -21 -19q-106 -289 -111 -332q-2 -31 10.5 -46t55.5 -27q41 -10 98 -17q4 -6 2 -29.5t-6 -29.5q-12 0 -104 3t-158 3q-68 0 -138.5 -3t-80.5 -3q-6 6 -6 29.5zM432 604q0 -12 8 -14q20 -2 164 -2 q117 0 137 2q4 0 6.5 5t0.5 11q-86 264 -152 443q-10 0 -10 -2q-10 -29 -72 -204.5t-82 -238.5zM545 1368q18 27 121.5 132.5t124.5 117.5q23 -2 65.5 -26.5t56.5 -43.5q4 -4 4.5 -14t-4.5 -12q-20 -23 -171.5 -110t-166.5 -87q-4 0 -18 20.5t-12 22.5z" />
<glyph unicode="&#xc2;" horiz-adv-x="1255" d="M-51 23.5q0 23.5 6 29.5q113 14 151.5 44t88.5 147q174 416 342 901q29 76 34 117h23q25 -2 45 -2q18 0 33.5 1t23.5 1h11q16 -63 32 -107q270 -772 340 -936q45 -102 78 -126.5t143 -39.5q6 -6 3 -29.5t-7 -29.5q-160 6 -249 6q-139 0 -269 -6q-4 6 -6 29.5t4 29.5 q76 10 113 23q35 16 22 51q-41 150 -123 352q-4 14 -18 15h-192h-170q-14 0 -21 -19q-106 -289 -111 -332q-2 -31 10.5 -46t55.5 -27q41 -10 98 -17q4 -6 2 -29.5t-6 -29.5q-12 0 -104 3t-158 3q-68 0 -138.5 -3t-80.5 -3q-6 6 -6 29.5zM367 1360q182 135 249 203q6 6 43 14 q18 -20 122 -105.5t143 -111.5q0 -8 -12.5 -27.5t-18.5 -19.5q-10 0 -116.5 47t-131.5 61q-14 4 -20 0q-31 -18 -126.5 -63t-103.5 -45t-19 18.5t-9 28.5zM432 604q0 -12 8 -14q20 -2 164 -2q117 0 137 2q4 0 6.5 5t0.5 11q-86 264 -152 443q-10 0 -10 -2 q-10 -29 -72 -204.5t-82 -238.5z" />
<glyph unicode="&#xc3;" horiz-adv-x="1255" d="M-51 23.5q0 23.5 6 29.5q113 14 151.5 44t88.5 147q174 416 342 901q29 76 34 117h23q25 -2 45 -2q18 0 33.5 1t23.5 1h11q16 -63 32 -107q270 -772 340 -936q45 -102 78 -126.5t143 -39.5q6 -6 3 -29.5t-7 -29.5q-160 6 -249 6q-139 0 -269 -6q-4 6 -6 29.5t4 29.5 q76 10 113 23q35 16 22 51q-41 150 -123 352q-4 14 -18 15h-192h-170q-14 0 -21 -19q-106 -289 -111 -332q-2 -31 10.5 -46t55.5 -27q41 -10 98 -17q4 -6 2 -29.5t-6 -29.5q-12 0 -104 3t-158 3q-68 0 -138.5 -3t-80.5 -3q-6 6 -6 29.5zM358 1393q20 31 86 77t107 46 t125 -27q63 -23 98 -23q66 0 144 68q2 2 8 -10q10 -31 8 -43q-25 -41 -91.5 -82t-121.5 -41q-37 0 -135 33q-66 16 -80 16q-49 0 -125 -61q-2 -2 -9 8t-11.5 23.5t-2.5 15.5zM432 604q0 -12 8 -14q20 -2 164 -2q117 0 137 2q4 0 6.5 5t0.5 11q-86 264 -152 443q-10 0 -10 -2 q-10 -29 -72 -204.5t-82 -238.5z" />
<glyph unicode="&#xc4;" horiz-adv-x="1255" d="M-51 23.5q0 23.5 6 29.5q113 14 151.5 44t88.5 147q174 416 342 901q29 76 34 117h23q25 -2 45 -2q18 0 33.5 1t23.5 1h11q16 -63 32 -107q270 -772 340 -936q45 -102 78 -126.5t143 -39.5q6 -6 3 -29.5t-7 -29.5q-160 6 -249 6q-139 0 -269 -6q-4 6 -6 29.5t4 29.5 q76 10 113 23q35 16 22 51q-41 150 -123 352q-4 14 -18 15h-192h-170q-14 0 -21 -19q-106 -289 -111 -332q-2 -31 10.5 -46t55.5 -27q41 -10 98 -17q4 -6 2 -29.5t-6 -29.5q-12 0 -104 3t-158 3q-68 0 -138.5 -3t-80.5 -3q-6 6 -6 29.5zM383 1421q0 45 10 58q37 37 94 37 q49 0 56 -19q20 -25 20 -55q0 -70 -41 -96q-8 -6 -43 -9.5t-45 2.5q-43 21 -51 82zM432 604q0 -12 8 -14q20 -2 164 -2q117 0 137 2q4 0 6.5 5t0.5 11q-86 264 -152 443q-10 0 -10 -2q-10 -29 -72 -204.5t-82 -238.5zM727 1421q-6 33 10 58q37 37 97 37q37 0 55 -19 q18 -23 18 -55q0 -70 -41 -96q-8 -6 -43 -9.5t-45 2.5q-39 19 -51 82z" />
<glyph unicode="&#xc5;" horiz-adv-x="1255" d="M-51 23.5q0 23.5 6 29.5q113 14 151.5 44t88.5 147q174 416 342 901q29 76 34 117h23q25 -2 45 -2q18 0 33.5 1t23.5 1h11q16 -63 32 -107q270 -772 340 -936q45 -102 78 -126.5t143 -39.5q6 -6 3 -29.5t-7 -29.5q-160 6 -249 6q-139 0 -269 -6q-4 6 -6 29.5t4 29.5 q76 10 113 23q35 16 22 51q-41 150 -123 352q-4 14 -18 15h-192h-170q-14 0 -21 -19q-106 -289 -111 -332q-2 -31 10.5 -46t55.5 -27q41 -10 98 -17q4 -6 2 -29.5t-6 -29.5q-12 0 -104 3t-158 3q-68 0 -138.5 -3t-80.5 -3q-6 6 -6 29.5zM432 604q0 -12 8 -14q20 -2 164 -2 q117 0 137 2q4 0 6.5 5t0.5 11q-86 264 -152 443q-10 0 -10 -2q-10 -29 -72 -204.5t-82 -238.5zM485 1444q0 70 42 110.5t122 40.5q72 0 113 -41t41 -102q0 -70 -46 -111t-116 -41q-53 0 -104.5 36t-51.5 108zM549 1446q0 -33 29.5 -53.5t70.5 -20.5q37 0 64.5 20.5 t27.5 51.5q0 80 -100 80q-92 0 -92 -78z" />
<glyph unicode="&#xc6;" horiz-adv-x="1712" d="M-45 -8q-10 18 0 61q115 16 157 46t101 145q217 397 471 913q8 18 -8 25l-182 26q-6 6 -3 30t9 28q16 0 139 -3t192 -3h469q174 0 234 8q0 -2 2 -2l2 -4q-18 -70 -33 -293q-8 -6 -32.5 -7t-32.5 5q-10 80 -29 131q-12 41 -32.5 57t-67.5 21q-31 2 -164 2t-160 -2 q-20 -2 -20 -35q6 -80 21.5 -268.5t17.5 -221.5q0 -16 14 -16q213 0 278 6q55 2 76 59q16 55 25 88q10 4 36.5 3.5t32.5 -9.5q-12 -123 -12 -200q-2 -43 1 -109.5t3 -81.5q-12 -4 -34.5 -5t-34.5 5q-16 78 -19 84q-20 59 -74 64q-61 4 -274 4q-8 0 -8 -17q14 -213 31 -350 q12 -80 59 -86q61 -12 287 -6q47 2 75.5 14.5t57.5 51.5q51 63 98 184q8 2 31.5 -5t30.5 -16q-6 -39 -31 -131t-45 -141q-12 -29 -34 -38t-73 -9q-37 0 -188.5 3t-333.5 3q-74 0 -185.5 -4t-146.5 -4q-6 6 -7 30.5t3 30.5q104 10 158 23q37 8 49 33.5t10 80.5q0 49 -24 340 q0 2 -9 11q-31 2 -184 2h-77q-32 0 -44 -1t-22 -1h-17q-6 0 -15 -7.5t-9 -11.5q-166 -346 -172 -377q-4 -33 6 -49t51 -26l103 -17q4 -6 3 -30.5t-8 -30.5q-14 0 -105 4t-157 4q-68 0 -143.5 -4t-83.5 -4zM528 651q0 -12 9 -14q20 -2 139 -2q111 0 139 2q14 0 14 12 q-25 424 -38 506q-2 4 -7.5 6t-7.5 0q-20 -41 -77.5 -157.5t-105 -213t-65.5 -139.5z" />
<glyph unicode="&#xc7;" horiz-adv-x="1378" d="M113 639q0 174 81.5 325.5t243.5 237.5q172 94 416 94q106 0 250 -18q84 -12 149 -16q-25 -164 -24 -314q-4 -6 -32 -10t-32 2q-16 121 -41.5 168t-83.5 72q-94 43 -256 43q-221 0 -344 -151.5t-123 -414.5q0 -260 142.5 -432t404.5 -172q150 0 226 70q70 55 153 201 q8 0 27.5 -11.5t21.5 -21.5q-16 -68 -68.5 -162t-86.5 -115q-125 -43 -277 -51l-35 -53q59 -31 93 -60q45 -37 45 -102q0 -84 -85 -144.5t-147 -60.5q-78 0 -110 60q-6 27 6 49q59 -31 131 -31q37 0 58.5 18.5t21.5 49.5q0 82 -150 127q2 12 4 18q55 78 94 129 q-324 10 -498.5 186.5t-174.5 489.5z" />
<glyph unicode="&#xc8;" horiz-adv-x="1142" d="M15 21.5q-1 23.5 5 31.5q125 12 156 21q37 8 51.5 31.5t18.5 78.5q2 39 2 496q0 369 -2 405q-4 57 -14.5 77t-47.5 28q-35 10 -108 20q-8 6 -6 28t8 30q18 0 112.5 -4t159.5 -4h404q170 0 227 8q8 -8 8 -11q-23 -82 -37 -280q-6 -8 -32.5 -8t-30.5 4q-6 66 -23 125 q-12 39 -32.5 56t-69.5 22q-29 2 -161 2t-152 -2q-10 -2 -17.5 -16.5t-7.5 -22.5q-2 -115 -2 -435q0 -14 10 -14q203 -4 314 4q51 4 69 62q14 37 23 82q8 4 34.5 3t32.5 -10q-14 -96 -14 -192q0 -84 4 -186q-8 -8 -34.5 -9.5t-35.5 7.5q-8 61 -16 83q-16 55 -70 60 q-43 4 -148.5 5t-158.5 -1q-10 0 -10 -16q0 -311 4 -410q0 -61 47 -78q49 -12 303 -12q63 2 93 16.5t59 50.5q47 53 102 181q8 2 30.5 -6.5t29.5 -16.5q-8 -51 -36 -144t-50 -136q-10 -18 -33 -25.5t-94 -7.5q-80 0 -250 4t-283 4q-76 0 -182.5 -3t-140.5 -3q-7 4 -8 27.5z M319 1546q0 10 3 13q14 14 63 41.5t72 29.5q27 -18 120 -116.5t117 -133.5q4 -4 -14 -24.5t-25 -20.5q-10 0 -160.5 88t-172.5 109q-3 4 -3 14z" />
<glyph unicode="&#xc9;" horiz-adv-x="1142" d="M15 21.5q-1 23.5 5 31.5q125 12 156 21q37 8 51.5 31.5t18.5 78.5q2 39 2 496q0 369 -2 405q-4 57 -14.5 77t-47.5 28q-35 10 -108 20q-8 6 -6 28t8 30q18 0 112.5 -4t159.5 -4h404q170 0 227 8q8 -8 8 -11q-23 -82 -37 -280q-6 -8 -32.5 -8t-30.5 4q-6 66 -23 125 q-12 39 -32.5 56t-69.5 22q-29 2 -161 2t-152 -2q-10 -2 -17.5 -16.5t-7.5 -22.5q-2 -115 -2 -435q0 -14 10 -14q203 -4 314 4q51 4 69 62q14 37 23 82q8 4 34.5 3t32.5 -10q-14 -96 -14 -192q0 -84 4 -186q-8 -8 -34.5 -9.5t-35.5 7.5q-8 61 -16 83q-16 55 -70 60 q-43 4 -148.5 5t-158.5 -1q-10 0 -10 -16q0 -311 4 -410q0 -61 47 -78q49 -12 303 -12q63 2 93 16.5t59 50.5q47 53 102 181q8 2 30.5 -6.5t29.5 -16.5q-8 -51 -36 -144t-50 -136q-10 -18 -33 -25.5t-94 -7.5q-80 0 -250 4t-283 4q-76 0 -182.5 -3t-140.5 -3q-7 4 -8 27.5z M492 1380q18 27 121.5 132.5t123.5 117.5q23 -2 66 -26.5t57 -42.5q4 -4 4 -14.5t-4 -12.5q-20 -23 -171.5 -110t-166.5 -87q-4 0 -18 20.5t-12 22.5z" />
<glyph unicode="&#xca;" horiz-adv-x="1142" d="M15 21.5q-1 23.5 5 31.5q125 12 156 21q37 8 51.5 31.5t18.5 78.5q2 39 2 496q0 369 -2 405q-4 57 -14.5 77t-47.5 28q-35 10 -108 20q-8 6 -6 28t8 30q18 0 112.5 -4t159.5 -4h404q170 0 227 8q8 -8 8 -11q-23 -82 -37 -280q-6 -8 -32.5 -8t-30.5 4q-6 66 -23 125 q-12 39 -32.5 56t-69.5 22q-29 2 -161 2t-152 -2q-10 -2 -17.5 -16.5t-7.5 -22.5q-2 -115 -2 -435q0 -14 10 -14q203 -4 314 4q51 4 69 62q14 37 23 82q8 4 34.5 3t32.5 -10q-14 -96 -14 -192q0 -84 4 -186q-8 -8 -34.5 -9.5t-35.5 7.5q-8 61 -16 83q-16 55 -70 60 q-43 4 -148.5 5t-158.5 -1q-10 0 -10 -16q0 -311 4 -410q0 -61 47 -78q49 -12 303 -12q63 2 93 16.5t59 50.5q47 53 102 181q8 2 30.5 -6.5t29.5 -16.5q-8 -51 -36 -144t-50 -136q-10 -18 -33 -25.5t-94 -7.5q-80 0 -250 4t-283 4q-76 0 -182.5 -3t-140.5 -3q-7 4 -8 27.5z M299 1389q182 135 250 202q8 6 43 15q18 -20 121.5 -105.5t142.5 -111.5q0 -8 -12.5 -28t-18.5 -20q-10 0 -116.5 47.5t-130.5 61.5q-14 4 -21 0q-31 -18 -126 -63.5t-103.5 -45.5t-19.5 19t-9 29z" />
<glyph unicode="&#xcb;" horiz-adv-x="1142" d="M15 21.5q-1 23.5 5 31.5q125 12 156 21q37 8 51.5 31.5t18.5 78.5q2 39 2 496q0 369 -2 405q-4 57 -14.5 77t-47.5 28q-35 10 -108 20q-8 6 -6 28t8 30q18 0 112.5 -4t159.5 -4h404q170 0 227 8q8 -8 8 -11q-23 -82 -37 -280q-6 -8 -32.5 -8t-30.5 4q-6 66 -23 125 q-12 39 -32.5 56t-69.5 22q-29 2 -161 2t-152 -2q-10 -2 -17.5 -16.5t-7.5 -22.5q-2 -115 -2 -435q0 -14 10 -14q203 -4 314 4q51 4 69 62q14 37 23 82q8 4 34.5 3t32.5 -10q-14 -96 -14 -192q0 -84 4 -186q-8 -8 -34.5 -9.5t-35.5 7.5q-8 61 -16 83q-16 55 -70 60 q-43 4 -148.5 5t-158.5 -1q-10 0 -10 -16q0 -311 4 -410q0 -61 47 -78q49 -12 303 -12q63 2 93 16.5t59 50.5q47 53 102 181q8 2 30.5 -6.5t29.5 -16.5q-8 -51 -36 -144t-50 -136q-10 -18 -33 -25.5t-94 -7.5q-80 0 -250 4t-283 4q-76 0 -182.5 -3t-140.5 -3q-7 4 -8 27.5z M317 1452q0 45 11 57q37 37 94 37q49 0 55 -18q20 -25 21 -55q0 -70 -41 -97q-8 -6 -43 -9t-45 3q-44 21 -52 82zM662 1452q-6 33 10 57q37 37 96 37q37 0 55 -18q18 -23 19 -55q0 -70 -41 -97q-8 -6 -43 -9t-45 3q-39 19 -51 82z" />
<glyph unicode="&#xcc;" horiz-adv-x="659" d="M53 23.5q0 25.5 6 29.5q70 6 105 17q41 8 54 27.5t18 60.5q8 57 8 536q0 301 -6 398q-2 31 -5.5 46t-14.5 28.5t-32 19.5q-23 8 -125 22q-6 6 -4 30t6 28q14 0 109.5 -3t157.5 -3q59 0 147 3t107 3q4 -6 5 -27.5t-3 -30.5q-86 -12 -105 -16q-33 -8 -44 -29.5t-15 -72.5 q-4 -57 -4 -437q0 -399 4 -471q2 -49 15.5 -73.5t56.5 -34.5q33 -10 120 -21q6 -6 4 -30.5t-8 -28.5q-18 0 -112.5 3t-151.5 3q-66 0 -162 -3t-123 -3q-8 4 -8 29.5zM61 1538q0 10 2 14q14 14 63.5 42t72.5 30q27 -18 120 -116.5t117 -133.5q4 -4 -14.5 -24.5t-24.5 -20.5 q-10 0 -160.5 88t-173.5 109q-2 2 -2 12z" />
<glyph unicode="&#xcd;" horiz-adv-x="659" d="M53 23.5q0 25.5 6 29.5q70 6 105 17q41 8 54 27.5t18 60.5q8 57 8 536q0 301 -6 398q-2 31 -5.5 46t-14.5 28.5t-32 19.5q-23 8 -125 22q-6 6 -4 30t6 28q14 0 109.5 -3t157.5 -3q59 0 147 3t107 3q4 -6 5 -27.5t-3 -30.5q-86 -12 -105 -16q-33 -8 -44 -29.5t-15 -72.5 q-4 -57 -4 -437q0 -399 4 -471q2 -49 15.5 -73.5t56.5 -34.5q33 -10 120 -21q6 -6 4 -30.5t-8 -28.5q-18 0 -112.5 3t-151.5 3q-66 0 -162 -3t-123 -3q-8 4 -8 29.5zM231 1380q18 27 122 132.5t124 117.5q23 -2 66 -26.5t57 -42.5q2 -4 2 -14.5t-2 -12.5q-20 -23 -172 -110 t-166 -87q-4 0 -18.5 20.5t-12.5 22.5z" />
<glyph unicode="&#xce;" horiz-adv-x="659" d="M53 23.5q0 25.5 6 29.5q70 6 105 17q41 8 54 27.5t18 60.5q8 57 8 536q0 301 -6 398q-2 31 -5.5 46t-14.5 28.5t-32 19.5q-23 8 -125 22q-6 6 -4 30t6 28q14 0 109.5 -3t157.5 -3q59 0 147 3t107 3q4 -6 5 -27.5t-3 -30.5q-86 -12 -105 -16q-33 -8 -44 -29.5t-15 -72.5 q-4 -57 -4 -437q0 -399 4 -471q2 -49 15.5 -73.5t56.5 -34.5q33 -10 120 -21q6 -6 4 -30.5t-8 -28.5q-18 0 -112.5 3t-151.5 3q-66 0 -162 -3t-123 -3q-8 4 -8 29.5zM55 1401q182 135 250 203q6 6 43 14q18 -20 121.5 -105.5t142.5 -111.5q0 -8 -12 -27.5t-18 -19.5 q-10 0 -117 47t-131 61q-14 4 -21 0q-31 -18 -126 -63t-103 -45t-19.5 18.5t-9.5 28.5z" />
<glyph unicode="&#xcf;" horiz-adv-x="659" d="M53 23.5q0 25.5 6 29.5q70 6 105 17q41 8 54 27.5t18 60.5q8 57 8 536q0 301 -6 398q-2 31 -5.5 46t-14.5 28.5t-32 19.5q-23 8 -125 22q-6 6 -4 30t6 28q14 0 109.5 -3t157.5 -3q59 0 147 3t107 3q4 -6 5 -27.5t-3 -30.5q-86 -12 -105 -16q-33 -8 -44 -29.5t-15 -72.5 q-4 -57 -4 -437q0 -399 4 -471q2 -49 15.5 -73.5t56.5 -34.5q33 -10 120 -21q6 -6 4 -30.5t-8 -28.5q-18 0 -112.5 3t-151.5 3q-66 0 -162 -3t-123 -3q-8 4 -8 29.5zM68 1450q0 45 10 57q37 37 94 37q49 0 55 -18q20 -25 21 -56q0 -70 -41 -96q-8 -6 -43 -9t-45 3 q-43 21 -51 82zM412 1450q-6 33 10 57q37 37 96 37q37 0 55 -18q18 -23 19 -56q0 -70 -41 -96q-8 -6 -43 -9t-45 3q-39 19 -51 82z" />
<glyph unicode="&#xd0;" horiz-adv-x="1452" d="M31 25.5q0 23.5 6 27.5q86 6 133 21q61 16 68 98q6 178 6 446q-117 -2 -189 -2q0 55 13 74h176q0 297 -6 397q-2 51 -18.5 72t-55.5 31q-43 10 -109 18q-4 6 -1 30t7 28q20 0 119 -3t129 -3q53 0 173 4t225 4q272 0 438 -144q195 -170 194 -465q0 -356 -262 -534 q-197 -139 -489 -139q-63 0 -215 4t-234 4h-102q-6 8 -6 31.5zM420 618q0 -381 4 -423q4 -59 41 -82q59 -45 221 -45q182 0 299 108q160 150 160 449q0 330 -234 485q-125 84 -362 84q-78 0 -105 -10q-20 -10 -22 -37q-2 -20 -2 -457q72 0 159 1t145 1h62q6 -35 -10 -74 h-356z" />
<glyph unicode="&#xd1;" horiz-adv-x="1503" d="M28 1237q1 25 7 29q18 0 108 -3t148 -3q76 0 92 2q14 -35 74 -111q461 -578 727 -889q4 -2 8 2q0 692 -8 811q-4 49 -19.5 72.5t-58.5 36.5q-55 16 -137 24q-6 6 -5 30t5 28q18 0 109 -3t163 -3q41 0 125 3t92 3q6 -4 6 -28t-6 -30q-51 -8 -90 -20q-63 -23 -70 -111 q-4 -57 -16 -807q0 -145 4 -280q-16 2 -69.5 2t-71.5 -2q-111 160 -795 1014q-2 2 -5 1t-3 -4q-4 -154 -3 -438t5 -366q2 -59 22.5 -86t61.5 -37q27 -8 123 -21q6 -6 4 -29.5t-8 -29.5q-16 0 -103.5 3t-152.5 3q-74 0 -154 -3t-92 -3q-4 4 -4 29.5t4 29.5q59 6 109 19 q74 23 77 121q12 150 19 870q0 70 -55 100q-49 33 -164 45q-4 4 -3 29zM475 1421q20 31 86 77t107 46t125 -26q63 -23 98 -23q66 0 143 68q2 2 8 -11q10 -31 9 -43q-25 -41 -91.5 -82t-121.5 -41q-37 0 -136 33q-66 16 -79 17q-49 0 -125 -62q-2 -2 -9.5 8.5t-11.5 23.5 t-2 15z" />
<glyph unicode="&#xd2;" horiz-adv-x="1527" d="M113 641q0 221 127 395q84 117 235.5 188.5t310.5 71.5q152 0 274 -52t198.5 -142t116.5 -204t40 -241q0 -252 -125 -426q-92 -129 -236.5 -198.5t-301.5 -69.5q-289 0 -463 187q-176 194 -176 491zM313 688q0 -172 65.5 -326.5t194.5 -238.5q111 -70 256 -70 q135 0 220 72q172 139 172 461q0 174 -59.5 319.5t-176.5 227.5q-119 82 -268 81q-104 0 -185 -45q-109 -63 -164 -191t-55 -290zM504 1571q0 10 4 14q14 14 63.5 42t71.5 30q27 -18 120 -116.5t118 -133.5q4 -4 -14.5 -24.5t-24.5 -20.5q-10 0 -161 88t-173 109q-4 2 -4 12 z" />
<glyph unicode="&#xd3;" horiz-adv-x="1527" d="M113 641q0 221 127 395q84 117 235.5 188.5t310.5 71.5q152 0 274 -52t198.5 -142t116.5 -204t40 -241q0 -252 -125 -426q-92 -129 -236.5 -198.5t-301.5 -69.5q-289 0 -463 187q-176 194 -176 491zM313 688q0 -172 65.5 -326.5t194.5 -238.5q111 -70 256 -70 q135 0 220 72q172 139 172 461q0 174 -59.5 319.5t-176.5 227.5q-119 82 -268 81q-104 0 -185 -45q-109 -63 -164 -191t-55 -290zM641 1407q18 27 121.5 132.5t124.5 117.5q23 -2 65.5 -26.5t57.5 -43.5q2 -4 2 -14t-2 -12q-20 -23 -172 -110t-166 -87q-4 0 -18.5 20.5 t-12.5 22.5z" />
<glyph unicode="&#xd4;" horiz-adv-x="1527" d="M113 641q0 221 127 395q84 117 235.5 188.5t310.5 71.5q152 0 274 -52t198.5 -142t116.5 -204t40 -241q0 -252 -125 -426q-92 -129 -236.5 -198.5t-301.5 -69.5q-289 0 -463 187q-176 194 -176 491zM313 688q0 -172 65.5 -326.5t194.5 -238.5q111 -70 256 -70 q135 0 220 72q172 139 172 461q0 174 -59.5 319.5t-176.5 227.5q-119 82 -268 81q-104 0 -185 -45q-109 -63 -164 -191t-55 -290zM489 1409q182 135 250 203q6 6 43 14q18 -20 122 -105t143 -112q0 -8 -12.5 -27.5t-18.5 -19.5q-10 0 -116.5 47t-131.5 61q-14 4 -20 0 q-31 -18 -126.5 -63t-103.5 -45t-19.5 18.5t-9.5 28.5z" />
<glyph unicode="&#xd5;" horiz-adv-x="1527" d="M113 641q0 221 127 395q84 117 235.5 188.5t310.5 71.5q152 0 274 -52t198.5 -142t116.5 -204t40 -241q0 -252 -125 -426q-92 -129 -236.5 -198.5t-301.5 -69.5q-289 0 -463 187q-176 194 -176 491zM313 688q0 -172 65.5 -326.5t194.5 -238.5q111 -70 256 -70 q135 0 220 72q172 139 172 461q0 174 -59.5 319.5t-176.5 227.5q-119 82 -268 81q-104 0 -185 -45q-109 -63 -164 -191t-55 -290zM475 1438q20 31 86 77t107 46t125 -27q63 -23 98 -23q66 0 143 68q2 2 8 -10q10 -31 9 -43q-25 -41 -91.5 -82t-121.5 -41q-37 0 -136 33 q-66 16 -79 16q-49 0 -125 -61q-2 -2 -9.5 8t-11.5 23.5t-2 15.5z" />
<glyph unicode="&#xd6;" horiz-adv-x="1527" d="M113 641q0 221 127 395q84 117 235.5 188.5t310.5 71.5q152 0 274 -52t198.5 -142t116.5 -204t40 -241q0 -252 -125 -426q-92 -129 -236.5 -198.5t-301.5 -69.5q-289 0 -463 187q-176 194 -176 491zM313 688q0 -172 65.5 -326.5t194.5 -238.5q111 -70 256 -70 q135 0 220 72q172 139 172 461q0 174 -59.5 319.5t-176.5 227.5q-119 82 -268 81q-104 0 -185 -45q-109 -63 -164 -191t-55 -290zM502 1473q0 45 10 57q37 37 94 37q49 0 56 -19q20 -25 20 -55q0 -70 -41 -96q-8 -6 -43 -9.5t-45 3.5q-43 21 -51 82zM846 1473q-6 33 10 57 q37 37 96 37q37 0 56 -19q18 -23 18 -55q0 -70 -41 -96q-8 -6 -43 -9.5t-45 3.5q-39 19 -51 82z" />
<glyph unicode="&#xd7;" horiz-adv-x="1120" d="M102 53q27 23 172.5 178.5t190.5 208.5q6 12 0 19q-244 268 -350 399q0 10 25.5 48t35.5 48q14 6 21 0q10 -18 152.5 -185t209.5 -234q283 315 328 378q2 8 44 15.5t83 9.5q4 -2 5 -10t-1 -13q-41 -55 -97.5 -121.5t-93 -107.5t-107.5 -119t-87 -96v-16 q66 -78 195.5 -214.5t181.5 -179.5q0 -20 -9 -22q-18 -4 -79.5 3t-79.5 21q-76 63 -293 304q-8 8 -14 -2q-260 -285 -287 -304q-43 -29 -137 -28q-4 2 -7.5 9t-1.5 11z" />
<glyph unicode="&#xd8;" horiz-adv-x="1527" d="M113 641q0 221 127 395q84 117 235.5 188.5t310.5 71.5q186 0 355 -92l84 113q4 4 30.5 1t42.5 -9v-11l-100 -139q106 -88 161.5 -221t55.5 -281q0 -252 -125 -426q-92 -129 -236.5 -198.5t-301.5 -69.5q-207 0 -363 103l-100 -136q-2 -4 -33 4.5t-41 14.5l-2 8l115 154 q-106 94 -160.5 235t-54.5 295zM313 688q0 -254 119 -436l619 835q-131 127 -332 127q-100 0 -184 -45q-109 -63 -165.5 -191t-56.5 -290zM481 190q131 -139 346 -139q133 0 222 72q176 141 176 463q0 283 -125 440z" />
<glyph unicode="&#xd9;" horiz-adv-x="1443" d="M46 1237q1 25 7 29q10 0 107.5 -3t152.5 -3q53 0 137.5 3t104.5 3q6 -4 6 -29t-6 -29l-96 -18q-35 -10 -47.5 -32.5t-14.5 -76.5q-6 -344 2 -585q6 -145 39 -209q33 -92 124 -149.5t231 -57.5q72 0 126 14.5t106 51t84 114.5t38 195q16 299 4 594q-2 76 -21.5 103.5 t-70.5 37.5q-12 4 -27.5 6t-38 6t-39.5 6q-6 6 -5 30t7 28q8 0 92.5 -3t153.5 -3q53 0 131 3t88 3q4 -4 5 -29t-5 -29q-12 -4 -42.5 -10t-43.5 -10q-43 -12 -57 -44t-16 -108q-2 -94 -5.5 -218t-5.5 -177t-5 -121.5t-9 -110.5t-16 -85q-29 -131 -109 -215t-175 -115 t-212 -31q-449 0 -494 371q-10 78 -13 414.5t-3 338.5q-4 82 -57 101q-14 4 -107 20q-6 4 -5 29zM471 1546q0 10 4 13q14 14 63.5 41.5t71.5 29.5q27 -18 120 -116.5t118 -133.5q4 -4 -14.5 -24.5t-24.5 -20.5q-10 0 -160.5 88t-173.5 109q-4 4 -4 14z" />
<glyph unicode="&#xda;" horiz-adv-x="1443" d="M46 1237q1 25 7 29q10 0 107.5 -3t152.5 -3q53 0 137.5 3t104.5 3q6 -4 6 -29t-6 -29l-96 -18q-35 -10 -47.5 -32.5t-14.5 -76.5q-6 -344 2 -585q6 -145 39 -209q33 -92 124 -149.5t231 -57.5q72 0 126 14.5t106 51t84 114.5t38 195q16 299 4 594q-2 76 -21.5 103.5 t-70.5 37.5q-12 4 -27.5 6t-38 6t-39.5 6q-6 6 -5 30t7 28q8 0 92.5 -3t153.5 -3q53 0 131 3t88 3q4 -4 5 -29t-5 -29q-12 -4 -42.5 -10t-43.5 -10q-43 -12 -57 -44t-16 -108q-2 -94 -5.5 -218t-5.5 -177t-5 -121.5t-9 -110.5t-16 -85q-29 -131 -109 -215t-175 -115 t-212 -31q-449 0 -494 371q-10 78 -13 414.5t-3 338.5q-4 82 -57 101q-14 4 -107 20q-6 4 -5 29zM659 1378q18 27 122 132.5t124 117.5q23 -2 66 -26.5t57 -42.5q4 -4 4 -14.5t-4 -12.5q-20 -23 -171.5 -110t-166.5 -87q-4 0 -18.5 20.5t-12.5 22.5z" />
<glyph unicode="&#xdb;" horiz-adv-x="1443" d="M46 1237q1 25 7 29q10 0 107.5 -3t152.5 -3q53 0 137.5 3t104.5 3q6 -4 6 -29t-6 -29l-96 -18q-35 -10 -47.5 -32.5t-14.5 -76.5q-6 -344 2 -585q6 -145 39 -209q33 -92 124 -149.5t231 -57.5q72 0 126 14.5t106 51t84 114.5t38 195q16 299 4 594q-2 76 -21.5 103.5 t-70.5 37.5q-12 4 -27.5 6t-38 6t-39.5 6q-6 6 -5 30t7 28q8 0 92.5 -3t153.5 -3q53 0 131 3t88 3q4 -4 5 -29t-5 -29q-12 -4 -42.5 -10t-43.5 -10q-43 -12 -57 -44t-16 -108q-2 -94 -5.5 -218t-5.5 -177t-5 -121.5t-9 -110.5t-16 -85q-29 -131 -109 -215t-175 -115 t-212 -31q-449 0 -494 371q-10 78 -13 414.5t-3 338.5q-4 82 -57 101q-14 4 -107 20q-6 4 -5 29zM483 1401q182 135 250 203q8 6 43 14q18 -20 121.5 -105.5t142.5 -111.5q0 -8 -12 -27.5t-18 -19.5q-10 0 -117 47t-131 61q-14 4 -21 0q-31 -18 -126 -63t-103 -45 t-19.5 18.5t-9.5 28.5z" />
<glyph unicode="&#xdc;" horiz-adv-x="1443" d="M46 1237q1 25 7 29q10 0 107.5 -3t152.5 -3q53 0 137.5 3t104.5 3q6 -4 6 -29t-6 -29l-96 -18q-35 -10 -47.5 -32.5t-14.5 -76.5q-6 -344 2 -585q6 -145 39 -209q33 -92 124 -149.5t231 -57.5q72 0 126 14.5t106 51t84 114.5t38 195q16 299 4 594q-2 76 -21.5 103.5 t-70.5 37.5q-12 4 -27.5 6t-38 6t-39.5 6q-6 6 -5 30t7 28q8 0 92.5 -3t153.5 -3q53 0 131 3t88 3q4 -4 5 -29t-5 -29q-12 -4 -42.5 -10t-43.5 -10q-43 -12 -57 -44t-16 -108q-2 -94 -5.5 -218t-5.5 -177t-5 -121.5t-9 -110.5t-16 -85q-29 -131 -109 -215t-175 -115 t-212 -31q-449 0 -494 371q-10 78 -13 414.5t-3 338.5q-4 82 -57 101q-14 4 -107 20q-6 4 -5 29zM500 1460q0 45 10 58q37 37 94 36q49 0 55 -18q20 -25 21 -55q0 -70 -41 -97q-8 -6 -43 -9t-45 3q-43 21 -51 82zM844 1460q-6 33 10 58q37 37 96 36q37 0 56 -18 q18 -23 18 -55q0 -70 -41 -97q-8 -6 -43 -9t-45 3q-39 19 -51 82z" />
<glyph unicode="&#xdd;" horiz-adv-x="1155" d="M-40 1237q1 23 7 29q20 0 110.5 -3t143.5 -3q154 0 228 6q8 -4 9 -28t-7 -30q-66 -12 -74 -14q-37 -12 -15 -57q39 -84 132.5 -263.5t126.5 -234.5q10 0 12 2q57 94 142 248.5t112 222.5q31 66 -41 80q-14 4 -46 8t-50 8q-6 8 -4 32t10 26q184 -6 225 -6q113 0 217 6 q8 -2 8 -28t-6 -30l-86 -16q-45 -12 -73.5 -39t-69.5 -92q-160 -248 -287 -498q-16 -37 -16 -71q0 -78 4 -287q2 -70 14 -98.5t53 -36.5q33 -8 125 -19q4 -6 2 -29.5t-8 -27.5q-16 0 -115.5 3t-167.5 3q-84 0 -180 -3t-114 -3q-6 4 -6.5 28.5t6.5 28.5q102 12 139 21 q39 10 53 35.5t16 76.5q2 100 3 265q0 59 -17 98q-53 123 -246 473q-59 102 -87.5 131t-84.5 43q-8 2 -94 14q-4 6 -3 29zM526 1376q18 27 122 132.5t124 117.5q23 -2 66 -26.5t57 -43.5q2 -4 2 -14t-2 -12q-20 -23 -172 -110t-166 -87q-4 0 -18.5 20.5t-12.5 22.5z" />
<glyph unicode="&#xde;" horiz-adv-x="1112" d="M62 23.5q-1 21.5 6 27.5q82 12 100 17q39 12 53.5 35.5t16.5 84.5q4 70 4 463q0 369 -2 430q-4 55 -18.5 80t-57.5 33q-70 12 -96 14q-4 8 -1 32t7 26q18 0 98 -2t152 -4q53 0 139 3t108 3q6 -8 6.5 -28.5t-6.5 -29.5q-78 -10 -100 -16q-33 -8 -41 -25.5t-12 -68.5v-94 q0 -8 8 -9q143 4 209 4q193 0 289 -75q115 -90 114 -267q0 -223 -200 -327q-100 -51 -232 -51q-70 0 -106 12q-14 12 -15 47q-2 4 2 18q31 -6 82 -6q96 0 166 33q117 68 117 242q0 303 -336 303q-70 0 -84 -13q-12 -4 -16 -26q0 -2 1 -131t1 -283q0 -207 4 -309 q2 -45 17.5 -65.5t56.5 -28.5q29 -6 118 -19q4 -6 4 -29.5t-4 -29.5q-27 0 -129 3t-145 3q-55 0 -157.5 -3t-114.5 -3q-5 8 -6 29.5z" />
<glyph unicode="&#xdf;" horiz-adv-x="1005" d="M34 23.5q-1 21.5 5 29.5q27 2 74 13q31 10 42 26.5t11 52.5l2 566l-125 8q-4 33 16 59q76 12 111 35q0 197 53 306.5t156 187.5q104 82 223 82q115 0 191.5 -81t76.5 -210q0 -76 -39 -137q-33 -47 -135 -166q-35 -39 -34 -64q0 -10 7 -22.5t26.5 -31t34.5 -32.5t49 -44 t55 -48q106 -92 106 -213t-65.5 -206t-149.5 -126q-66 -33 -137 -33q-35 0 -71 12.5t-48 32.5q-8 37 10 111q2 12 13 16q82 -70 167 -69q150 0 150 155q0 104 -119 218q-35 31 -78 66.5t-69.5 57t-36.5 33.5q-10 10 -5 47t17 50q66 59 121 122q98 102 98 232q0 92 -57 168 t-152 76q-106 0 -156 -131.5t-48 -436.5q0 -436 2 -592q0 -59 45 -75q20 -8 69 -15q4 -6 2 -29.5t-6 -29.5q-12 0 -90 3t-108 3q-33 0 -199 -6q-4 8 -5 29.5z" />
<glyph unicode="&#xe0;" horiz-adv-x="831" d="M78 207q0 27 13 64.5t24 52.5q35 18 191.5 66t195.5 67q12 6 12 20q2 10 2 55q0 78 -31 121q-53 78 -155 78q-55 0 -82 -20q-37 -27 -86 -148q-2 -4 -17.5 2t-29 18.5t-13.5 20.5q4 23 21.5 68t26.5 53q63 45 146 79t122 34q131 0 203 -109q47 -78 47 -203 q0 -55 -4.5 -182t-4.5 -164q0 -82 78 -82q41 0 72 11q2 -6 -1 -32t-7 -30q-66 -72 -168 -72q-80 0 -105 54q-6 8 -16 51q0 2 -3 3t-5 -1q-170 -106 -244 -107q-57 0 -113 52q-69 76 -69 180zM205 1223q-6 10 6 22q16 6 74.5 15.5t74.5 5.5q51 -106 121 -322 q-2 -8 -22.5 -18.5t-26.5 -7.5q-37 43 -118.5 154.5t-108.5 150.5zM240 236q0 -61 38.5 -100.5t104.5 -39.5q57 0 104 33q18 10 23 47q4 43 4 211q0 2 -4 6t-6 2q-221 -78 -244 -94q-6 -4 -13 -26.5t-7 -38.5z" />
<glyph unicode="&#xe1;" horiz-adv-x="831" d="M78 207q0 27 13 64.5t24 52.5q35 18 191.5 66t195.5 67q12 6 12 20q2 10 2 55q0 78 -31 121q-53 78 -155 78q-55 0 -82 -20q-37 -27 -86 -148q-2 -4 -17.5 2t-29 18.5t-13.5 20.5q4 23 21.5 68t26.5 53q63 45 146 79t122 34q131 0 203 -109q47 -78 47 -203 q0 -55 -4.5 -182t-4.5 -164q0 -82 78 -82q41 0 72 11q2 -6 -1 -32t-7 -30q-66 -72 -168 -72q-80 0 -105 54q-6 8 -16 51q0 2 -3 3t-5 -1q-170 -106 -244 -107q-57 0 -113 52q-69 76 -69 180zM240 236q0 -61 38.5 -100.5t104.5 -39.5q57 0 104 33q18 10 23 47q4 43 4 211 q0 2 -4 6t-6 2q-221 -78 -244 -94q-6 -4 -13 -26.5t-7 -38.5zM332 936q104 256 131 307q16 8 78.5 14.5t76.5 2.5q8 -4 9 -23q-20 -37 -114.5 -161t-135.5 -171q-6 0 -24.5 12.5t-20.5 18.5z" />
<glyph unicode="&#xe2;" horiz-adv-x="831" d="M78 207q0 27 13 64.5t24 52.5q35 18 191.5 66t195.5 67q12 6 12 20q2 10 2 55q0 78 -31 121q-53 78 -155 78q-55 0 -82 -20q-37 -27 -86 -148q-2 -4 -17.5 2t-29 18.5t-13.5 20.5q4 23 21.5 68t26.5 53q63 45 146 79t122 34q131 0 203 -109q47 -78 47 -203 q0 -55 -4.5 -182t-4.5 -164q0 -82 78 -82q41 0 72 11q2 -6 -1 -32t-7 -30q-66 -72 -168 -72q-80 0 -105 54q-6 8 -16 51q0 2 -3 3t-5 -1q-170 -106 -244 -107q-57 0 -113 52q-69 76 -69 180zM193 928q145 242 180 321q2 4 27.5 12.5t31.5 8.5q25 -57 88.5 -175t87.5 -153 q-4 -8 -34.5 -18.5t-45.5 -10.5q-29 10 -131 199q-2 2 -5 2t-5 -2q-27 -49 -66.5 -109.5t-52.5 -68.5q-10 -8 -34.5 -13.5t-34.5 -2.5q-6 0 -6 10zM240 236q0 -61 38.5 -100.5t104.5 -39.5q57 0 104 33q18 10 23 47q4 43 4 211q0 2 -4 6t-6 2q-221 -78 -244 -94 q-6 -4 -13 -26.5t-7 -38.5z" />
<glyph unicode="&#xe3;" horiz-adv-x="831" d="M78 207q0 27 13 64.5t24 52.5q35 18 191.5 66t195.5 67q12 6 12 20q2 10 2 55q0 78 -31 121q-53 78 -155 78q-55 0 -82 -20q-37 -27 -86 -148q-2 -4 -17.5 2t-29 18.5t-13.5 20.5q4 23 21.5 68t26.5 53q63 45 146 79t122 34q131 0 203 -109q47 -78 47 -203 q0 -55 -4.5 -182t-4.5 -164q0 -82 78 -82q41 0 72 11q2 -6 -1 -32t-7 -30q-66 -72 -168 -72q-80 0 -105 54q-6 8 -16 51q0 2 -3 3t-5 -1q-170 -106 -244 -107q-57 0 -113 52q-69 76 -69 180zM133 991q-2 8 1 27.5t7 23.5q18 29 75.5 71t94.5 42q35 0 115 -25q70 -25 94 -24 q68 0 135 68q10 0 11 -9q6 -31 -9 -53q-23 -39 -79 -76t-105 -37q-35 0 -129 31q-45 16 -76 17q-55 0 -123 -64q-6 -6 -12 8zM240 236q0 -61 38.5 -100.5t104.5 -39.5q57 0 104 33q18 10 23 47q4 43 4 211q0 2 -4 6t-6 2q-221 -78 -244 -94q-6 -4 -13 -26.5t-7 -38.5z" />
<glyph unicode="&#xe4;" horiz-adv-x="831" d="M78 207q0 27 13 64.5t24 52.5q35 18 191.5 66t195.5 67q12 6 12 20q2 10 2 55q0 78 -31 121q-53 78 -155 78q-55 0 -82 -20q-37 -27 -86 -148q-2 -4 -17.5 2t-29 18.5t-13.5 20.5q4 23 21.5 68t26.5 53q63 45 146 79t122 34q131 0 203 -109q47 -78 47 -203 q0 -55 -4.5 -182t-4.5 -164q0 -82 78 -82q41 0 72 11q2 -6 -1 -32t-7 -30q-66 -72 -168 -72q-80 0 -105 54q-6 8 -16 51q0 2 -3 3t-5 -1q-170 -106 -244 -107q-57 0 -113 52q-69 76 -69 180zM150 1110q0 45 10 57q33 33 86 33q49 0 59 -16q18 -23 19 -56q0 -61 -41 -92 q-6 -4 -41 -7t-45 3q-39 21 -47 78zM240 236q0 -61 38.5 -100.5t104.5 -39.5q57 0 104 33q18 10 23 47q4 43 4 211q0 2 -4 6t-6 2q-221 -78 -244 -94q-6 -4 -13 -26.5t-7 -38.5zM487 1110q0 45 11 57q33 33 88 33q47 0 57 -16q16 -20 16 -56q0 -63 -38 -92q-6 -4 -41 -6 t-45 2q-40 21 -48 78z" />
<glyph unicode="&#xe5;" horiz-adv-x="831" d="M78 207q0 27 13 64.5t24 52.5q35 18 191.5 66t195.5 67q12 6 12 20q2 10 2 55q0 78 -31 121q-53 78 -155 78q-55 0 -82 -20q-37 -27 -86 -148q-2 -4 -17.5 2t-29 18.5t-13.5 20.5q4 23 21.5 68t26.5 53q63 45 146 79t122 34q131 0 203 -109q47 -78 47 -203 q0 -55 -4.5 -182t-4.5 -164q0 -82 78 -82q41 0 72 11q2 -6 -1 -32t-7 -30q-66 -72 -168 -72q-80 0 -105 54q-6 8 -16 51q0 2 -3 3t-5 -1q-170 -106 -244 -107q-57 0 -113 52q-69 76 -69 180zM240 236q0 -61 38.5 -100.5t104.5 -39.5q57 0 104 33q18 10 23 47q4 43 4 211 q0 2 -4 6t-6 2q-221 -78 -244 -94q-6 -4 -13 -26.5t-7 -38.5zM246 1087q0 70 44 115t113 45q68 0 107 -44t39 -107q0 -72 -45 -116t-109 -44q-57 0 -103 37.5t-46 113.5zM307 1090q0 -35 27.5 -55.5t68.5 -20.5q35 0 62 21.5t27 51.5q0 84 -97 84q-88 1 -88 -81z" />
<glyph unicode="&#xe6;" horiz-adv-x="1263" d="M80 209q0 53 35 115q39 23 204.5 67.5t184.5 50.5q8 4 14 19q2 18 2 67q0 76 -35 129q-51 78 -153 78q-57 0 -84 -20q-29 -20 -84 -148q-4 -4 -34 12.5t-28 24.5q4 23 20.5 67t24.5 52q63 47 146.5 81t124.5 34q131 0 203 -115q10 -6 14 -2q63 57 136 87t126 30 q207 0 262 -238q0 -4 10.5 -12t22.5 -13q0 -25 -14 -43q-41 -12 -506 -122q-8 0 -8 -17q4 -117 79 -198q86 -90 211 -91q127 0 240 89q2 -8 2 -32t-2 -30q-63 -72 -156.5 -115t-167.5 -43q-174 0 -284 142q-4 6 -13 2q-180 -139 -294 -142q-31 0 -69 16.5t-60 41.5 q-70 70 -70 176zM240 238q0 -61 37.5 -99.5t103.5 -38.5q90 0 166 66q6 10 4 20q-37 84 -37 185q0 2 -4 6t-6 2q-231 -68 -246 -76q-6 -2 -12 -25.5t-6 -39.5zM659 489q0 -14 11 -14q217 45 325 80q10 6 11 20q-12 70 -57.5 127.5t-123.5 57.5q-76 0 -122 -76t-44 -195z" />
<glyph unicode="&#xe7;" horiz-adv-x="829" d="M86 391q0 240 207 363q135 84 260 84q94 0 168 -31q51 -27 61 -53q0 -16 -4 -33q-8 -23 -31.5 -50.5t-37.5 -33.5q-4 -2 -10.5 -2t-10.5 2q-109 109 -225 108q-109 0 -164 -80.5t-55 -195.5q0 -162 75 -252q86 -106 232 -106q127 0 233 98q10 0 11 -12q0 -45 -11 -60 q-102 -123 -252 -153l-45 -62q51 -29 88 -59q45 -43 46 -99q0 -82 -80 -138t-140 -56q-70 0 -106 55q-4 35 6 51q61 -31 123 -30q37 0 60.5 18.5t23.5 46.5q0 70 -143 121q-2 12 0 16q57 78 96 127h-6q-186 2 -289 142q-80 114 -80 274z" />
<glyph unicode="&#xe8;" horiz-adv-x="860" d="M86 399q0 250 180 371q104 68 221 68q133 0 202 -90.5t85 -200.5q4 -14 31 -23q2 -6 -5 -24.5t-12 -22.5q-123 -35 -536 -45q-12 -2 -12 -22q8 -127 84 -209q88 -90 223 -90q127 0 233 86q6 -6 8 -13q4 -33 -10 -55q-63 -72 -156.5 -113t-168.5 -41q-156 0 -250 99 q-117 116 -117 325zM244 524q0 -14 10 -14q49 -4 183 1t165 11q10 10 10 19q-8 84 -59 151.5t-129 67.5q-74 0 -123 -63.5t-57 -172.5zM256 1219q-6 10 6 22q16 6 74.5 15.5t75.5 5.5q51 -106 120 -322q-2 -8 -22.5 -18.5t-26.5 -8.5q-37 43 -118.5 155t-108.5 151z" />
<glyph unicode="&#xe9;" horiz-adv-x="860" d="M86 399q0 250 180 371q104 68 221 68q133 0 202 -90.5t85 -200.5q4 -14 31 -23q2 -6 -5 -24.5t-12 -22.5q-123 -35 -536 -45q-12 -2 -12 -22q8 -127 84 -209q88 -90 223 -90q127 0 233 86q6 -6 8 -13q4 -33 -10 -55q-63 -72 -156.5 -113t-168.5 -41q-156 0 -250 99 q-117 116 -117 325zM244 524q0 -14 10 -14q49 -4 183 1t165 11q10 10 10 19q-8 84 -59 151.5t-129 67.5q-74 0 -123 -63.5t-57 -172.5zM375 942q104 256 131 307q16 8 78.5 14.5t77.5 2.5q8 -4 8 -23q-20 -37 -114.5 -161t-135.5 -171q-6 0 -24.5 12.5t-20.5 18.5z" />
<glyph unicode="&#xea;" horiz-adv-x="860" d="M86 399q0 250 180 371q104 68 221 68q133 0 202 -90.5t85 -200.5q4 -14 31 -23q2 -6 -5 -24.5t-12 -22.5q-123 -35 -536 -45q-12 -2 -12 -22q8 -127 84 -209q88 -90 223 -90q127 0 233 86q6 -6 8 -13q4 -33 -10 -55q-63 -72 -156.5 -113t-168.5 -41q-156 0 -250 99 q-117 116 -117 325zM244 524q0 -14 10 -14q49 -4 183 1t165 11q10 10 10 19q-8 84 -59 151.5t-129 67.5q-74 0 -123 -63.5t-57 -172.5zM254 928q145 242 180 321q2 4 27.5 12.5t32.5 8.5q25 -57 88 -175t88 -153q-4 -8 -35 -18.5t-45 -10.5q-29 10 -131 199q-2 2 -5 2t-5 -2 q-27 -49 -67 -109.5t-52 -68.5q-10 -8 -35 -13.5t-35 -2.5q-6 0 -6 10z" />
<glyph unicode="&#xeb;" horiz-adv-x="860" d="M86 399q0 250 180 371q104 68 221 68q133 0 202 -90.5t85 -200.5q4 -14 31 -23q2 -6 -5 -24.5t-12 -22.5q-123 -35 -536 -45q-12 -2 -12 -22q8 -127 84 -209q88 -90 223 -90q127 0 233 86q6 -6 8 -13q4 -33 -10 -55q-63 -72 -156.5 -113t-168.5 -41q-156 0 -250 99 q-117 116 -117 325zM211 1110q0 45 10 57q33 33 86 33q49 0 60 -16q18 -23 18 -56q0 -61 -41 -92q-6 -4 -41 -7t-45 3q-39 21 -47 78zM244 524q0 -14 10 -14q49 -4 183 1t165 11q10 10 10 19q-8 84 -59 151.5t-129 67.5q-74 0 -123 -63.5t-57 -172.5zM549 1110q0 45 10 57 q33 33 88 33q47 0 58 -16q16 -20 16 -56q0 -63 -39 -92q-6 -4 -41 -6t-45 2q-39 21 -47 78z" />
<glyph unicode="&#xec;" horiz-adv-x="487" d="M33 1217q-6 10 6 22q16 6 74.5 15.5t74.5 5.5q51 -106 121 -322q-2 -8 -22.5 -18.5t-26.5 -8.5q-37 43 -118.5 155t-108.5 151zM37 23.5q0 23.5 4 29.5q51 6 88 19q18 8 25.5 22.5t11.5 50.5q4 51 4 299q0 45 -1 112t-1 83q0 27 -14 43q-23 23 -99 49q-4 6 -1 25.5 t9 23.5q133 4 267 60q0 -41 -1 -166t-1 -193q0 -250 2 -342q0 -55 43 -69q53 -12 84 -17q4 -8 1 -31.5t-9 -27.5q-10 0 -78 3t-129 3q-49 0 -120 -3t-81 -3q-4 6 -4 29.5z" />
<glyph unicode="&#xed;" horiz-adv-x="487" d="M37 23.5q0 23.5 4 29.5q51 6 88 19q18 8 25.5 22.5t11.5 50.5q4 51 4 299q0 45 -1 112t-1 83q0 27 -14 43q-23 23 -99 49q-4 6 -1 25.5t9 23.5q133 4 267 60q0 -41 -1 -166t-1 -193q0 -250 2 -342q0 -55 43 -69q53 -12 84 -17q4 -8 1 -31.5t-9 -27.5q-10 0 -78 3t-129 3 q-49 0 -120 -3t-81 -3q-4 6 -4 29.5zM170 936q104 256 131 307q16 8 78.5 14.5t77.5 2.5q8 -4 8 -23q-20 -37 -114.5 -161t-135.5 -171q-6 0 -24.5 12.5t-20.5 18.5z" />
<glyph unicode="&#xee;" horiz-adv-x="487" d="M23 928q145 242 180 321q2 4 27.5 12.5t31.5 8.5q25 -57 88.5 -175t87.5 -153q-4 -8 -34.5 -18.5t-45.5 -10.5q-29 10 -131 199q-2 2 -5 2t-5 -2q-27 -49 -66.5 -109.5t-52.5 -68.5q-10 -8 -34.5 -13.5t-34.5 -2.5q-6 0 -6 10zM37 23.5q0 23.5 4 29.5q51 6 88 19 q18 8 25.5 22.5t11.5 50.5q4 51 4 299q0 45 -1 112t-1 83q0 27 -14 43q-23 23 -99 49q-4 6 -1 25.5t9 23.5q133 4 267 60q0 -41 -1 -166t-1 -193q0 -250 2 -342q0 -55 43 -69q53 -12 84 -17q4 -8 1 -31.5t-9 -27.5q-10 0 -78 3t-129 3q-49 0 -120 -3t-81 -3q-4 6 -4 29.5z " />
<glyph unicode="&#xef;" horiz-adv-x="487" d="M-12 1110q0 45 10 57q33 33 86 33q49 0 59 -16q18 -23 19 -56q0 -61 -41 -92q-6 -4 -41 -7t-45 3q-39 21 -47 78zM37 23.5q0 23.5 4 29.5q51 6 88 19q18 8 25.5 22.5t11.5 50.5q4 51 4 299q0 45 -1 112t-1 83q0 27 -14 43q-23 23 -99 49q-4 6 -1 25.5t9 23.5 q133 4 267 60q0 -41 -1 -166t-1 -193q0 -250 2 -342q0 -55 43 -69q53 -12 84 -17q4 -8 1 -31.5t-9 -27.5q-10 0 -78 3t-129 3q-49 0 -120 -3t-81 -3q-4 6 -4 29.5zM326 1110q0 45 10 57q33 33 88 33q47 0 57 -16q16 -20 17 -56q0 -63 -39 -92q-6 -4 -41 -6t-45 2 q-39 21 -47 78z" />
<glyph unicode="&#xf0;" horiz-adv-x="989" d="M86 397q0 229 176 353q119 86 260 86q84 0 162 -25q-53 156 -131 248l-254 -111q-6 6 -7 36t7 36l203 92q-131 147 -359 221q0 12 7.5 30.5t15.5 22.5q92 -10 223 -70.5t234 -150.5l223 105q2 0 5 -16.5t2 -35t-5 -22.5l-172 -82q104 -117 163.5 -269.5t59.5 -314.5 q0 -358 -221 -501q-86 -53 -201 -54q-186 0 -288.5 122t-102.5 300zM260 457q0 -190 75 -300t183 -110q92 0 152.5 93t60.5 292q0 168 -35 221q-72 111 -221 111q-84 0 -149.5 -75.5t-65.5 -231.5z" />
<glyph unicode="&#xf1;" horiz-adv-x="1024" d="M43 23.5q0 23.5 6 29.5q39 6 74 15q39 12 43 71q4 63 4 336q0 102 -4 164q-8 41 -107 78q-4 10 0 26.5t11 20.5q141 14 252 76q8 -8 8 -15q-4 -45 -4 -116q0 -8 10 -4q162 133 278 133q125 0 197 -107q53 -84 53 -242q0 -299 4 -370q0 -31 21 -39q33 -16 102 -27 q4 -8 3 -29.5t-9 -29.5q-4 0 -68.5 3t-128.5 3q-55 0 -202 -6q-4 6 -5 29.5t5 29.5q59 6 84 15q35 12 37 84q6 311 -7 397q-10 82 -57 121q-51 47 -127 47q-94 0 -170 -66q-20 -20 -20 -73q0 -344 4 -439q2 -59 39 -69q25 -8 86 -17q4 -6 2 -28.5t-8 -30.5q-6 0 -70 3 t-131 3q-59 0 -128 -3t-71 -3q-6 6 -6 29.5zM248 991q-2 8 1 27.5t7 23.5q18 29 75.5 71t94.5 42q35 0 115 -25q70 -25 94 -24q68 0 135 68q10 0 10 -9q6 -31 -8 -53q-23 -39 -79 -76t-105 -37q-35 0 -129 31q-45 16 -76 17q-55 0 -123 -64q-6 -6 -12 8z" />
<glyph unicode="&#xf2;" horiz-adv-x="1007" d="M86 414q0 219 178 342q129 82 268 82q180 0 285 -117t105 -295q0 -254 -191 -375q-113 -76 -237 -76q-207 0 -307.5 129.5t-100.5 309.5zM260 465q0 -180 80 -293t205 -113q80 0 125 43q78 72 78 258q0 178 -78 288t-207 110q-57 0 -98 -29q-105 -67 -105 -264zM293 1219 q-6 10 6 22q16 6 74.5 15.5t75.5 5.5q51 -106 120 -322q-2 -8 -22.5 -18.5t-26.5 -8.5q-37 43 -118.5 155t-108.5 151z" />
<glyph unicode="&#xf3;" horiz-adv-x="1007" d="M86 414q0 219 178 342q129 82 268 82q180 0 285 -117t105 -295q0 -254 -191 -375q-113 -76 -237 -76q-207 0 -307.5 129.5t-100.5 309.5zM260 465q0 -180 80 -293t205 -113q80 0 125 43q78 72 78 258q0 178 -78 288t-207 110q-57 0 -98 -29q-105 -67 -105 -264zM420 936 q104 256 131 307q16 8 78.5 14.5t77.5 2.5q8 -4 8 -23q-20 -37 -114.5 -161t-135.5 -171q-6 0 -24.5 12.5t-20.5 18.5z" />
<glyph unicode="&#xf4;" horiz-adv-x="1007" d="M86 414q0 219 178 342q129 82 268 82q180 0 285 -117t105 -295q0 -254 -191 -375q-113 -76 -237 -76q-207 0 -307.5 129.5t-100.5 309.5zM260 465q0 -180 80 -293t205 -113q80 0 125 43q78 72 78 258q0 178 -78 288t-207 110q-57 0 -98 -29q-105 -67 -105 -264zM293 928 q145 242 180 321q2 4 27.5 12.5t31.5 8.5q25 -57 88.5 -175t88.5 -153q-4 -8 -35 -18.5t-45 -10.5q-29 10 -131 199q-2 2 -5.5 2t-5.5 -2q-27 -49 -66.5 -109.5t-51.5 -68.5q-10 -8 -35 -13.5t-35 -2.5q-6 0 -6 10z" />
<glyph unicode="&#xf5;" horiz-adv-x="1007" d="M86 414q0 219 178 342q129 82 268 82q180 0 285 -117t105 -295q0 -254 -191 -375q-113 -76 -237 -76q-207 0 -307.5 129.5t-100.5 309.5zM240 991q-2 8 1 27.5t7 23.5q18 29 75.5 71t94.5 42q35 0 114 -25q70 -25 95 -24q68 0 135 68q10 0 10 -9q6 -31 -8 -53 q-23 -39 -79 -76t-105 -37q-35 0 -129 31q-45 16 -76 17q-55 0 -123 -64q-6 -6 -12 8zM260 465q0 -180 80 -293t205 -113q80 0 125 43q78 72 78 258q0 178 -78 288t-207 110q-57 0 -98 -29q-105 -67 -105 -264z" />
<glyph unicode="&#xf6;" horiz-adv-x="1007" d="M86 414q0 219 178 342q129 82 268 82q180 0 285 -117t105 -295q0 -254 -191 -375q-113 -76 -237 -76q-207 0 -307.5 129.5t-100.5 309.5zM248 1110q0 45 10 57q33 33 86 33q49 0 59 -16q18 -23 19 -56q0 -61 -41 -92q-6 -4 -41 -7t-45 3q-39 21 -47 78zM260 465 q0 -180 80 -293t205 -113q80 0 125 43q78 72 78 258q0 178 -78 288t-207 110q-57 0 -98 -29q-105 -67 -105 -264zM586 1110q0 45 10 57q33 33 88 33q47 0 57 -16q16 -20 17 -56q0 -63 -39 -92q-6 -4 -41 -6t-45 2q-39 21 -47 78z" />
<glyph unicode="&#xf7;" horiz-adv-x="1114" d="M88 453q16 70 29 96q10 -2 233 -2h678q4 -2 4 -25q-20 -82 -33 -84l-905 -6q-6 1 -6 21zM459 188q-2 6 4 32t10 30q41 33 102 33q51 0 64 -17q16 -16 16 -53q0 -61 -37 -100q-6 -6 -49 -13.5t-61 4.5q-43 35 -49 84zM459 803q-2 8 4 34.5t10 30.5q43 31 102 31 q53 0 64 -16q16 -16 16 -45q0 -55 -51 -111q-6 -6 -45 -11t-57 7q-37 25 -43 80z" />
<glyph unicode="&#xf8;" horiz-adv-x="1007" d="M86 414q0 219 178 342q129 82 268 82q98 0 181 -39l57 86q4 2 26.5 -15.5t24.5 -23.5l-55 -82q156 -115 156 -338q0 -254 -191 -375q-113 -76 -237 -76q-119 0 -211 50l-60 -95q-6 0 -27.5 16.5t-23.5 22.5l57 92q-143 122 -143 353zM254 463q0 -164 68 -262l319 487 q-70 70 -176 70q-211 0 -211 -295zM362 143q68 -86 183 -86q209 0 209 303q0 170 -70 277z" />
<glyph unicode="&#xf9;" horiz-adv-x="997" d="M25 739q-2 10 2 31t10 25q199 4 285 32q-12 -102 -13 -399q0 -168 10 -209q29 -119 168 -119q92 0 168 64q18 16 23 49q4 47 0 444q-4 49 -39 60q-18 6 -131 22q-4 10 0 31t10 25q215 0 326 28q-2 -16 -6 -178l-2 -463q2 -74 45 -76q12 0 86 5q2 -10 0 -32t-9 -28 q-113 -45 -266 -84q-8 0 -12 19q-2 23 -2 114q0 4 -5 5t-7 -1q-154 -129 -271 -129q-240 0 -243 277v399q-4 57 -33 70q-16 6 -94 18zM270 1217q-6 10 6 22q16 6 75 15.5t75 5.5q51 -106 121 -322q-2 -8 -22.5 -18.5t-26.5 -8.5q-37 43 -119 155t-109 151z" />
<glyph unicode="&#xfa;" horiz-adv-x="997" d="M25 739q-2 10 2 31t10 25q199 4 285 32q-12 -102 -13 -399q0 -168 10 -209q29 -119 168 -119q92 0 168 64q18 16 23 49q4 47 0 444q-4 49 -39 60q-18 6 -131 22q-4 10 0 31t10 25q215 0 326 28q-2 -16 -6 -178l-2 -463q2 -74 45 -76q12 0 86 5q2 -10 0 -32t-9 -28 q-113 -45 -266 -84q-8 0 -12 19q-2 23 -2 114q0 4 -5 5t-7 -1q-154 -129 -271 -129q-240 0 -243 277v399q-4 57 -33 70q-16 6 -94 18zM416 936q104 256 131 307q16 8 78.5 14.5t76.5 2.5q8 -4 9 -23q-20 -37 -114.5 -161t-135.5 -171q-6 0 -24.5 12.5t-20.5 18.5z" />
<glyph unicode="&#xfb;" horiz-adv-x="997" d="M25 739q-2 10 2 31t10 25q199 4 285 32q-12 -102 -13 -399q0 -168 10 -209q29 -119 168 -119q92 0 168 64q18 16 23 49q4 47 0 444q-4 49 -39 60q-18 6 -131 22q-4 10 0 31t10 25q215 0 326 28q-2 -16 -6 -178l-2 -463q2 -74 45 -76q12 0 86 5q2 -10 0 -32t-9 -28 q-113 -45 -266 -84q-8 0 -12 19q-2 23 -2 114q0 4 -5 5t-7 -1q-154 -129 -271 -129q-240 0 -243 277v399q-4 57 -33 70q-16 6 -94 18zM285 928q145 242 180 321q2 4 27.5 12.5t31.5 8.5q25 -57 88.5 -175t87.5 -153q-4 -8 -34.5 -18.5t-44.5 -10.5q-29 10 -132 199 q-2 2 -5 2t-5 -2q-27 -49 -66.5 -109.5t-52.5 -68.5q-10 -8 -34.5 -13.5t-34.5 -2.5q-6 0 -6 10z" />
<glyph unicode="&#xfc;" horiz-adv-x="997" d="M25 739q-2 10 2 31t10 25q199 4 285 32q-12 -102 -13 -399q0 -168 10 -209q29 -119 168 -119q92 0 168 64q18 16 23 49q4 47 0 444q-4 49 -39 60q-18 6 -131 22q-4 10 0 31t10 25q215 0 326 28q-2 -16 -6 -178l-2 -463q2 -74 45 -76q12 0 86 5q2 -10 0 -32t-9 -28 q-113 -45 -266 -84q-8 0 -12 19q-2 23 -2 114q0 4 -5 5t-7 -1q-154 -129 -271 -129q-240 0 -243 277v399q-4 57 -33 70q-16 6 -94 18zM233 1110q0 45 11 57q33 33 86 33q49 0 59 -16q18 -23 19 -56q0 -61 -41 -92q-6 -4 -41 -7t-45 3q-40 21 -48 78zM571 1110q0 45 11 57 q33 33 88 33q47 0 57 -16q16 -20 16 -56q0 -63 -38 -92q-6 -4 -41 -6t-46 2q-39 21 -47 78z" />
<glyph unicode="&#xfd;" horiz-adv-x="882" d="M-18 788.5q2 24.5 8 26.5q12 0 79.5 -3t119 -3t126 3t82.5 3q6 -4 7.5 -27.5t-3.5 -31.5q-70 -14 -75 -17q-23 -8 -17 -34q25 -80 98.5 -273.5t86.5 -218.5h8q145 311 168 467q8 45 -35 59q-33 10 -90 17q-4 10 -1 31.5t9 27.5q6 0 70.5 -3t105.5 -3q18 0 191 6 q6 -6 6 -28.5t-4 -30.5q-49 -6 -74 -17q-53 -14 -80 -92q-221 -582 -483 -1036q-49 -86 -64 -115l-14 -8q-23 4 -57.5 22.5t-49.5 32.5q-2 4 -3 16.5t1 16.5q217 270 301 449q0 4 -16 36q-129 334 -197 496q-41 102 -65.5 138t-67.5 48q-47 10 -69 13q-4 8 -2 32.5zM422 936 q104 256 131 307q16 8 78.5 14.5t77.5 2.5q8 -4 8 -23q-20 -37 -114.5 -161t-135.5 -171q-6 0 -24.5 12.5t-20.5 18.5z" />
<glyph unicode="&#xfe;" horiz-adv-x="999" d="M-10 1301.5q2 21.5 6 25.5q176 10 321 62q4 0 9.5 -11.5t3.5 -15.5q-25 -35 -25 -401v-224q0 -8 10 -4q176 104 275 105q145 0 233 -107q90 -106 90 -262q0 -244 -190 -383q-53 -39 -141 -71.5t-160 -39.5q-66 0 -113 13q0 -287 2 -324q4 -37 15.5 -53.5t44.5 -22.5 q51 -12 121 -18q6 -43 -11 -59h-80q-84 0 -403 -25q-6 10 -6 32.5t4 28.5q51 10 90 23q53 18 55 100q4 66 6 844q0 594 -10 678q-2 51 -45 61q-29 10 -100 19q-4 8 -2 29.5zM307 199q0 -41 29 -74q66 -55 166 -55q102 0 170 75q72 88 71 236q0 150 -65 240q-76 100 -205 100 q-78 0 -143 -43q-16 -8 -21 -35q-2 -14 -2 -444z" />
<glyph unicode="&#xff;" horiz-adv-x="882" d="M-18 788.5q2 24.5 8 26.5q12 0 79.5 -3t119 -3t126 3t82.5 3q6 -4 7.5 -27.5t-3.5 -31.5q-70 -14 -75 -17q-23 -8 -17 -34q25 -80 98.5 -273.5t86.5 -218.5h8q145 311 168 467q8 45 -35 59q-33 10 -90 17q-4 10 -1 31.5t9 27.5q6 0 70.5 -3t105.5 -3q18 0 191 6 q6 -6 6 -28.5t-4 -30.5q-49 -6 -74 -17q-53 -14 -80 -92q-221 -582 -483 -1036q-49 -86 -64 -115l-14 -8q-23 4 -57.5 22.5t-49.5 32.5q-2 4 -3 16.5t1 16.5q217 270 301 449q0 4 -16 36q-129 334 -197 496q-41 102 -65.5 138t-67.5 48q-47 10 -69 13q-4 8 -2 32.5z M227 1110q0 45 11 57q33 33 86 33q49 0 59 -16q18 -23 18 -56q0 -61 -41 -92q-6 -4 -40.5 -7t-45.5 3q-39 21 -47 78zM565 1110q0 45 10 57q33 33 89 33q47 0 57 -16q16 -20 16 -56q0 -63 -39 -92q-6 -4 -40.5 -6t-45.5 2q-39 21 -47 78z" />
<glyph unicode="&#x152;" horiz-adv-x="2074" d="M113 641q0 225 127 395q84 119 233.5 189.5t312.5 70.5q82 0 185 -20q57 -14 112 -14h598q186 0 228 6l8 -6q-27 -96 -35 -291q-6 -6 -30.5 -8t-34.5 4q-8 78 -27 131q-12 39 -34.5 55t-72.5 21q-29 2 -247.5 3t-243.5 -1q-10 0 -2 -13q207 -162 223 -465q0 -10 8 -10 q186 0 256 4q55 2 74 64q14 39 23 86q10 4 37.5 2t31.5 -8q-14 -100 -14 -203q0 -47 6 -189q-10 -6 -34.5 -6t-37.5 4q-10 55 -16 84q-18 63 -74 66q-61 4 -252 4q-10 0 -10 -14q-6 -127 -66.5 -255t-164.5 -214q-16 -12 4 -19q145 -12 522 -12q104 0 154 70q55 74 102 186 q10 2 32.5 -6t30.5 -17q-29 -145 -79 -270q-12 -35 -33 -44t-82 -9q-532 8 -801 8q-39 0 -65 -10q-106 -27 -213 -27q-285 0 -461 187q-178 190 -178 491zM313 688q0 -174 66.5 -327.5t195.5 -237.5q106 -70 254 -70q135 0 218 70q176 139 176 465q0 174 -58.5 318.5 t-175.5 226.5q-121 82 -270 81q-100 0 -184 -45q-109 -63 -165.5 -191t-56.5 -290z" />
<glyph unicode="&#x153;" horiz-adv-x="1521" d="M86 414q0 219 178 340q127 84 271 84q178 -4 294 -133q8 -6 17 2q133 133 291 131q55 0 101 -18.5t75.5 -46.5t51 -62.5t33 -63.5t15.5 -53q0 -14 35 -25q-6 -37 -16 -45q-18 -8 -215 -35.5t-291 -35.5q-16 -4 -17 -23q10 -160 84 -233q82 -88 221 -88q119 0 234 88 q4 -8 4 -30t-2 -28q-66 -72 -162 -118t-178 -46q-160 0 -274 138q-8 8 -19 0q-147 -137 -321 -138q-207 0 -308.5 129.5t-101.5 309.5zM258 465q0 -178 83 -293t204 -115q82 0 127 41q84 80 84 279q0 168 -82 275.5t-211 107.5q-61 0 -103 -31q-102 -63 -102 -264zM909 532 q0 -12 11 -12q242 18 325 41q10 10 10 23q-10 68 -56 125t-120 57q-72 0 -119 -61.5t-51 -172.5z" />
<glyph unicode="&#x178;" horiz-adv-x="1155" d="M-40 1237q1 23 7 29q20 0 110.5 -3t143.5 -3q154 0 228 6q8 -4 9 -28t-7 -30q-66 -12 -74 -14q-37 -12 -15 -57q39 -84 132.5 -263.5t126.5 -234.5q10 0 12 2q57 94 142 248.5t112 222.5q31 66 -41 80q-14 4 -46 8t-50 8q-6 8 -4 32t10 26q184 -6 225 -6q113 0 217 6 q8 -2 8 -28t-6 -30l-86 -16q-45 -12 -73.5 -39t-69.5 -92q-160 -248 -287 -498q-16 -37 -16 -71q0 -78 4 -287q2 -70 14 -98.5t53 -36.5q33 -8 125 -19q4 -6 2 -29.5t-8 -27.5q-16 0 -115.5 3t-167.5 3q-84 0 -180 -3t-114 -3q-6 4 -6.5 28.5t6.5 28.5q102 12 139 21 q39 10 53 35.5t16 76.5q2 100 3 265q0 59 -17 98q-53 123 -246 473q-59 102 -87.5 131t-84.5 43q-8 2 -94 14q-4 6 -3 29zM352 1454q0 45 10 57q37 37 95 37q49 0 55 -18q20 -25 20 -55q0 -70 -40 -97q-8 -6 -43 -9t-46 3q-43 21 -51 82zM696 1454q-6 33 11 57q37 37 96 37 q37 0 55 -18q18 -23 19 -55q0 -70 -41 -97q-8 -6 -43 -9t-45 3q-40 19 -52 82z" />
<glyph unicode="&#x2c6;" horiz-adv-x="819" d="M199 928q145 242 180 321q2 4 27.5 12.5t31.5 8.5q25 -57 88.5 -175t87.5 -153q-4 -8 -34.5 -18.5t-44.5 -10.5q-29 10 -132 199q-2 2 -5 2t-5 -2q-27 -49 -66.5 -109.5t-52.5 -68.5q-10 -8 -34.5 -13.5t-34.5 -2.5q-6 0 -6 10z" />
<glyph unicode="&#x2dc;" horiz-adv-x="819" d="M145 991q-2 8 1.5 27.5t7.5 23.5q18 29 75.5 71t94.5 42q35 0 114 -25q70 -25 94 -24q68 0 136 68q10 0 10 -9q6 -31 -8 -53q-23 -39 -79 -76t-106 -37q-35 0 -129 31q-45 16 -75 17q-55 0 -123 -64q-7 -6 -13 8z" />
<glyph unicode="&#x2000;" horiz-adv-x="828" />
<glyph unicode="&#x2001;" horiz-adv-x="1657" />
<glyph unicode="&#x2002;" horiz-adv-x="828" />
<glyph unicode="&#x2003;" horiz-adv-x="1657" />
<glyph unicode="&#x2004;" horiz-adv-x="552" />
<glyph unicode="&#x2005;" horiz-adv-x="414" />
<glyph unicode="&#x2006;" horiz-adv-x="276" />
<glyph unicode="&#x2007;" horiz-adv-x="276" />
<glyph unicode="&#x2008;" horiz-adv-x="207" />
<glyph unicode="&#x2009;" horiz-adv-x="331" />
<glyph unicode="&#x200a;" horiz-adv-x="92" />
<glyph unicode="&#x2010;" horiz-adv-x="585" d="M76 377q2 25 11 63.5t15 38.5q109 0 406 10v-20q-2 -20 -13.5 -57t-17.5 -39q-12 -6 -186 -11.5t-213 -3.5z" />
<glyph unicode="&#x2011;" horiz-adv-x="585" d="M76 377q2 25 11 63.5t15 38.5q109 0 406 10v-20q-2 -20 -13.5 -57t-17.5 -39q-12 -6 -186 -11.5t-213 -3.5z" />
<glyph unicode="&#x2012;" horiz-adv-x="585" d="M76 377q2 25 11 63.5t15 38.5q109 0 406 10v-20q-2 -20 -13.5 -57t-17.5 -39q-12 -6 -186 -11.5t-213 -3.5z" />
<glyph unicode="&#x2013;" horiz-adv-x="1024" d="M70 375q2 16 10 48t12 34q10 2 430 3t432 -1v-15q-8 -80 -16 -82q-12 -2 -428 -3t-438 1z" />
<glyph unicode="&#x2014;" horiz-adv-x="2048" d="M84 375q12 78 22 82q10 2 928 3t930 -1v-15q-8 -80 -16 -82q-12 -4 -921.5 -4t-940.5 2z" />
<glyph unicode="&#x2018;" horiz-adv-x="425" d="M74 1087q0 104 84 183.5t174 103.5q4 -2 12 -22.5t6 -24.5q-152 -72 -151 -176q0 -63 100 -94q16 -10 8 -31q-8 -23 -50 -58.5t-67 -35.5q-49 0 -82.5 46t-33.5 109z" />
<glyph unicode="&#x2019;" horiz-adv-x="425" d="M74 977q152 70 151 178q0 31 -27.5 56.5t-70.5 37.5q-18 12 -8 31q12 25 53 59.5t64 34.5q49 0 82.5 -45t33.5 -108q0 -106 -85 -186.5t-173 -102.5q-6 2 -14 21.5t-6 23.5z" />
<glyph unicode="&#x201a;" horiz-adv-x="417" d="M-27 -305q186 160 187 309q0 45 -51 148q6 14 55 60t65 54q29 8 37 0q12 -10 27.5 -53t15.5 -98q0 -125 -89 -255t-191 -192q-20 -4 -52 17q-6 8 -4 10z" />
<glyph unicode="&#x201c;" horiz-adv-x="729" d="M74 1085q0 104 84 184.5t174 104.5q4 -2 12 -22.5t6 -24.5q-152 -70 -151 -176q0 -31 27.5 -57.5t72.5 -38.5q10 -10 6 -30.5t-47 -56.5t-68 -36q-51 0 -83.5 46t-32.5 107zM377 1085q0 104 85 184.5t175 104.5q4 -2 12 -22.5t6 -24.5q-154 -70 -153 -176 q0 -31 28.5 -57.5t71.5 -38.5q12 -12 8 -31q-6 -20 -49 -56t-65 -36q-51 0 -85 45t-34 108z" />
<glyph unicode="&#x201d;" horiz-adv-x="729" d="M74 979q154 70 153 176q0 31 -28.5 57.5t-71.5 36.5q-16 10 -8 31q12 27 53 60.5t64 33.5q49 0 82.5 -46t33.5 -109q0 -106 -85 -185.5t-173 -101.5q-6 2 -14 22.5t-6 24.5zM379 979q152 68 151 176q0 31 -28.5 57.5t-71.5 36.5q-16 16 -6 31q14 27 52 60.5t63 33.5 q51 0 84.5 -46t33.5 -109q0 -106 -85 -185.5t-175 -101.5q-4 2 -12 22.5t-6 24.5z" />
<glyph unicode="&#x201e;" horiz-adv-x="724" d="M-16 -305q180 154 180 309q0 53 -51 148q8 16 56 61t67 53q25 8 36 0q12 -12 26.5 -55t14.5 -96q0 -125 -86 -255t-188 -192q-20 -4 -51 17q-8 8 -4 10zM293 -305q180 158 180 309q0 53 -51 148q6 16 54 61t69 53q4 2 17 2t20 -2q12 -12 26.5 -55t14.5 -96 q0 -125 -86 -255t-189 -192q-25 -4 -51 17q-2 2 -4 5t0 5z" />
<glyph unicode="&#x2022;" horiz-adv-x="802" d="M170 389q0 94 72 164q68 63 159 63q96 0 158 -55q66 -61 66 -176q0 -104 -62 -166q-63 -63 -172 -63q-98 0 -158 59q-63 65 -63 174z" />
<glyph unicode="&#x2026;" horiz-adv-x="2048" d="M360 96q0 45 37 86q37 33 80 33q45 0 76 -31q37 -33 37 -90q0 -49 -33 -82q-35 -35 -88 -35q-43 0 -74 31q-35 35 -35 88zM907 96q0 45 37 86q33 33 78 33q47 0 78 -31q37 -33 37 -92q0 -47 -33 -80q-35 -35 -88 -35q-41 0 -76 31q-33 33 -33 88zM1458 96q0 45 37 86 q37 33 80 33q45 0 76 -31q37 -33 37 -92q0 -47 -33 -80q-33 -35 -88 -35q-45 0 -74 31q-35 33 -35 88z" />
<glyph unicode="&#x202f;" horiz-adv-x="331" />
<glyph unicode="&#x2039;" horiz-adv-x="915" d="M150 367q0 35 14 49q147 61 334.5 167.5t255.5 159.5q6 0 12 -12q0 -16 -7 -42.5t-11 -31.5q-35 -37 -166 -120.5t-222 -133.5q-2 -2 -3 -6t1 -6q84 -43 215.5 -131t169.5 -127q16 -20 11 -76q-6 -12 -17 -12q-51 45 -272 167t-315 155z" />
<glyph unicode="&#x203a;" horiz-adv-x="911" d="M150 57q6 63 18 72q78 78 387 256q8 8 0 12q-84 45 -216 132t-171 126q-10 12 -10 76q6 12 16 12q49 -45 270.5 -166.5t317.5 -156.5q0 -31 -14 -49q-145 -59 -330 -166t-256 -160q-2 0 -7 4t-5 8z" />
<glyph unicode="&#x205f;" horiz-adv-x="414" />
<glyph unicode="&#x20ac;" horiz-adv-x="952" d="M35 494q-2 10 4 36.5t10 30.5h84q0 16 1 54t1 57q-16 0 -45 -1t-37 -1q-2 14 4 39.5t11 29.5h71q39 285 217 416q117 90 301 90q59 0 143.5 -12t94.5 -12q-14 -109 -14 -240q-4 -8 -30 -10t-28 2q-12 82 -28.5 117.5t-46.5 56.5q-55 35 -138 35q-127 0 -204.5 -120 t-92.5 -314q0 -10 6 -11q59 0 147.5 1t155 2t72.5 1q4 -10 0 -36.5t-10 -34.5h-367q-8 0 -8 -8v-95q0 -8 8 -8q53 0 137.5 1t149.5 1h72q2 -8 -2 -32.5t-8 -34.5l-347 2q-6 0 -6 -11q16 -197 100.5 -312.5t231.5 -115.5q76 0 125 41q55 49 107 146q8 2 26.5 -9.5t20.5 -19.5 q-14 -55 -50 -116.5t-67 -88.5q-70 -37 -197 -37q-205 0 -327.5 130t-143.5 391h-104z" />
<glyph unicode="&#x2122;" horiz-adv-x="964" d="M47 1135l21 110q25 -10 67 -10h203q39 0 78 8q-12 -49 -19 -115q-2 -2 -15 -2t-17 2q-4 70 -35 70h-62v-207q2 -31 14.5 -39t63.5 -14q4 -4 2 -17.5t-6 -15.5q-6 0 -49 2t-65.5 2t-63.5 -2t-45 -2q-4 2 -4 13.5t4 15.5q45 8 56 17.5t13 31.5q2 31 3.5 111t1.5 104h-66 q-20 0 -49 -74q-4 -2 -16.5 2.5t-14.5 8.5zM434 923.5q0 14.5 4 16.5q39 6 48.5 13.5t13.5 25.5q16 115 16 192q0 14 -10 20.5t-57 12.5q-4 4 -2 17.5t6 15.5l143 -2l12 -35q47 -100 88 -174q63 106 92 174l15 35l135 2q4 -4 4 -16.5t-4 -16.5q-41 -2 -50 -11t-9 -30v-186 q0 -18 11 -24.5t48 -12.5q4 -2 3 -17.5t-3 -17.5q-12 0 -46 2t-50.5 2t-48 -2t-45.5 -2q-2 4 -2.5 18.5t2.5 16.5q33 6 43 12t10 25l6 178q-72 -137 -119 -246h-29q-45 117 -104 240q-6 -111 -6 -172q0 -14 11 -22.5t48 -14.5q2 -2 2 -16.5t-2 -18.5q-10 0 -40.5 2t-45 2 t-44 -2t-40.5 -2q-4 4 -4 18.5z" />
<glyph unicode="&#x25fc;" horiz-adv-x="815" d="M0 0v815h815v-815h-815z" />
<glyph unicode="&#xfb01;" horiz-adv-x="991" d="M30 22.5q-1 24.5 5 30.5q51 6 84 17q45 14 45 65q4 205 4 563q0 18 -10 19l-115 8q0 23 16 55q49 4 101 25q10 6 10 16q2 170 55.5 290t175.5 204q106 74 213 74q84 0 141.5 -35t73.5 -80q2 -4 1 -16.5t-3 -18.5q-4 -18 -28.5 -47t-46.5 -41q-27 -6 -39 4q-8 6 -49 53 q-74 80 -158 80q-59 0 -105 -53q-78 -86 -77 -379v-33q0 -14 12 -14h301q133 0 201 20q-6 -98 -7 -368q0 -231 3 -324q0 -53 43 -67q25 -8 94 -17q4 -6 1 -30.5t-11 -28.5q-8 0 -79 3t-134 3q-55 0 -121 -3t-74 -3q-6 6 -6 29.5t6 29.5q45 4 80 16.5t37 75.5q4 51 4 283 q0 225 -4 264q0 8 -8.5 17.5t-16.5 11.5h-311q-10 0 -10 -21q0 -451 4 -559q2 -61 57 -73q47 -10 80 -15q6 -6 3 -30.5t-9 -28.5q-12 0 -80 3t-131 3q-51 0 -123 -3t-88 -3q-6 4 -7 28.5z" />
<glyph unicode="&#xfb02;" horiz-adv-x="993" d="M35 -6q-10 41 0 59q53 6 86 17q43 14 43 67q0 23 6 553q0 18 -12 19l-117 6q0 29 20 59q63 10 99 31q10 4 10 14q2 174 54 294t177 204q100 68 193 67q78 0 135 -26q14 -8 35 0q16 6 65 35q2 0 10.5 -8.5t8.5 -10.5q-12 -92 -12 -170q-2 -104 -2 -530q0 -469 4 -524 q2 -39 9 -55.5t34 -24.5q25 -8 92 -17q4 -8 1 -30.5t-9 -28.5q-16 0 -84 3t-129 3q-63 0 -130 -3t-71 -3q-4 8 -4 29.5t4 27.5q61 10 86 19q27 10 35 55q4 61 4 547q0 444 -2 475q0 45 -23 72q-53 68 -143 67q-63 0 -107 -49q-78 -80 -77 -377q0 -27 2 -37q0 -14 10 -14 q111 0 215 6q-10 -61 -14 -108q-139 4 -201 2q-12 0 -12 -17q0 -74 1 -196.5t1 -214t2 -138.5q2 -68 61 -77q53 -10 80 -13q2 -8 -1 -31.5t-5 -27.5q-12 0 -80 3t-135 3q-25 0 -107.5 -3t-105.5 -3z" />
<glyph unicode="&#xfb03;" horiz-adv-x="1517" d="M27 23.5q0 23.5 6 27.5q10 2 29.5 6t34 7.5t22.5 5.5q47 14 47 71q2 59 3 264t1 295q0 16 -10 17l-117 8q0 23 16 55q47 4 103 25q8 4 8 16q4 299 227 451q115 76 215 76q139 4 224 -97q131 139 303 140q82 0 140 -36t75 -83q2 -6 2 -19.5t-2 -17.5q-16 -51 -66 -78 q-29 -14 -45 -2q-20 18 -49 51q-80 86 -160 86q-109 0 -149.5 -109.5t-40.5 -328.5v-31q0 -14 10 -14h309q133 0 201 20q-6 -98 -6 -368q0 -231 2 -324q0 -53 43 -67q25 -8 98 -17q6 -6 2 -30.5t-12 -28.5q-6 0 -80 3t-137 3q-49 0 -121 -3t-80 -3q-8 6 -7 29.5t7 29.5 q61 6 86 17q35 10 37 75q4 51 4 283q0 223 -2 262q-4 25 -27 29l-317 2q-4 0 -8 -6t-4 -10q0 -74 1 -201t1 -221.5t2 -141.5q2 -59 59 -73q53 -12 80 -15q4 -6 1 -30.5t-7 -28.5q-16 0 -84 3t-129 3q-49 0 -122 -3t-89 -3q-4 4 -4 28.5t4 30.5q51 6 84 17q43 14 43 65 q2 59 3 268t1 299q0 14 -12 19h-338q-4 0 -8 -7t-4 -12q0 -475 4 -559q2 -63 59 -77q43 -10 84 -13q4 -6 2 -31.5t-8 -27.5q-6 0 -79 3t-138 3q-53 0 -129 -3t-86 -3q-6 6 -6 29.5zM324 846l2 -23q0 -14 12 -14h340q10 4 10 16q0 166 55 299q-78 131 -217 131 q-70 0 -118 -57q-84 -90 -84 -352z" />
<glyph unicode="&#xfb04;" horiz-adv-x="1523" d="M31 23.5q0 23.5 4 29.5q68 8 84 15q47 16 47 71q2 59 3 266t1 297q0 14 -10 15l-117 8q0 29 18 55q31 2 99 23q10 6 10 18q4 297 231 453q109 74 211 74q141 4 224 -93q51 53 127.5 94.5t148.5 41.5q82 0 141 -35q14 -8 35 0q10 4 19.5 9t22.5 13t26 15q4 0 11 -7.5 t7 -11.5q-12 -61 -12 -170q-4 -209 -4 -530q0 -414 4 -524q2 -37 10 -54.5t37 -25.5q16 -6 92 -17q6 -8 3 -30.5t-11 -28.5q-18 0 -91 3t-124 3q-61 0 -131 -3t-74 -3q-6 6 -6 29.5t6 27.5q59 8 88 19q35 16 35 55q6 88 6 547q0 455 -2 485q-2 43 -29 74q-57 63 -143 63 q-61 0 -102 -38.5t-57.5 -109.5t-21.5 -135.5t-5 -150.5v-37q0 -14 12 -14q113 0 223 6q-14 -53 -14 -100q-33 0 -111 1t-100 1q-12 0 -12 -15q0 -451 4 -559q2 -68 61 -77q53 -10 78 -13q4 -6 2 -30.5t-8 -28.5q-12 0 -80 3t-133 3q-43 0 -119 -3t-92 -3q-6 6 -6 29.5 t6 29.5q53 6 84 17q43 14 43 65q0 23 6 570q0 12 -10 16h-340q-12 0 -12 -19q6 -555 6 -559q2 -63 59 -77q27 -6 82 -13q4 -6 2 -29.5t-8 -29.5q-6 0 -79 3t-138 3q-53 0 -128 -3t-85 -3q-4 6 -4 29.5zM324 823q8 -14 14 -14h338q10 4 10 16q4 176 57 305q-80 125 -217 125 q-72 0 -118 -55q-84 -90 -84 -354v-23z" />
</font>
</defs>
</svg>
