<?xml version="1.0" standalone="no"?>
<!DOCTYPE svg PUBLIC "-//W3C//DTD SVG 1.1//EN" "http://www.w3.org/Graphics/SVG/1.1/DTD/svg11.dtd" >
<svg xmlns="http://www.w3.org/2000/svg">
<metadata>
This is a custom SVG webfont generated by Font Squirrel.
Copyright   : Copyright c 2011 Hjort Nidudsson
Foundry URL : httpcaudexsfnet
</metadata>
<defs>
<font id="CaudexRegular" horiz-adv-x="1024" >
<font-face units-per-em="2048" ascent="1638" descent="-410" />
<missing-glyph horiz-adv-x="550" />
<glyph unicode=" "  horiz-adv-x="550" />
<glyph unicode="&#x09;" horiz-adv-x="550" />
<glyph unicode="&#xa0;" horiz-adv-x="550" />
<glyph unicode="!" horiz-adv-x="498" d="M149 61v82q0 87 110 87t110 -87v-82q0 -86 -110 -86t-110 86zM154 1330v10q0 64 73 64h63q74 0 74 -65v-9l-70 -955q0 -24 -25 -24h-21q-24 0 -24 24z" />
<glyph unicode="&#x22;" horiz-adv-x="834" d="M118 1409v4q0 30 54 30h47q54 0 54 -29v-5l-51 -440q0 -12 -19 -12h-15q-18 0 -18 12zM491 1409v4q0 30 54 30h47q54 0 54 -31v-3l-52 -440q0 -12 -18 -12h-15q-18 0 -18 12z" />
<glyph unicode="#" horiz-adv-x="1128" d="M90 391v85q0 10 14 10h279v275h-279q-14 0 -14 10v85q0 10 14 10h279v363q0 17 10 17h85q10 0 10 -17v-363h187v363q0 17 11 17h84q11 0 11 -17v-363h278q15 0 15 -10v-85q0 -10 -15 -10h-278v-275h278q15 0 15 -10v-85q0 -10 -15 -10h-278v-363q0 -18 -11 -18h-84 q-11 0 -11 18v363h-187v-363q0 -18 -10 -18h-85q-10 0 -10 18v363h-279q-14 0 -14 10zM488 486h187v275h-187v-275z" />
<glyph unicode="$" d="M66 245l2 23q3 17 20 17h2q11 -2 24 -27q54 -117 131 -164t199 -47v566q-53 9 -104 21t-99 36q-83 39 -124 116t-41 167q0 175 122 288q95 88 246 110v130q0 23 23 23h46q23 0 23 -23v-124q202 0 363 -104l-23 -197q-2 -18 -15 -18q-3 0 -6 1q-12 1 -24 26 q-40 84 -117 144t-165 63q-4 0 -7 0.5t-6 0.5v-503q51 -9 106.5 -17.5t107.5 -24.5q92 -28 140 -79q36 -40 55 -85q26 -60 26 -136q0 -201 -163 -334q-85 -70 -187 -102q-40 -13 -85 -21v-184q0 -23 -23 -23h-46q-23 0 -23 23v174h-28q-142 0 -261 37zM236 998q0 -36 11 -68 q19 -61 67 -97q37 -27 80 -37q6 -2 50 -11v478q-35 -8 -65 -22q-43 -20 -70 -50q-24 -24 -43 -64q-16 -35 -24 -72q-6 -30 -6 -57zM536 52q154 22 228 140q44 72 44 172v9q-2 105 -80 161q-37 26 -87 41q-44 12 -105 23v-546z" />
<glyph unicode="%" d="M20 0l909 1400h88l-909 -1400h-88zM45 909v218q0 95 60 162.5t169 67.5q112 0 171 -68t59 -162v-218q0 -95 -68 -162.5t-162 -67.5q-119 0 -174 68t-55 162zM145 921q0 -53 18 -129t111 -76q64 0 96.5 60t32.5 145v194q0 84 -29 145t-100 61q-96 -2 -112.5 -78 t-16.5 -128v-194zM533 190v217q0 95 60.5 163t169.5 68q111 0 170 -68.5t59 -162.5v-217q0 -96 -67.5 -162.5t-161.5 -66.5q-120 0 -175 67t-55 162zM634 202q0 -53 18 -129t111 -76q64 0 96.5 60t32.5 145v194q0 84 -29.5 144.5t-99.5 60.5q-96 -1 -112.5 -77t-16.5 -128 v-194z" />
<glyph unicode="&#x26;" horiz-adv-x="1292" d="M113 240q0 12 1 24q6 120 73 214q63 92 216 194q-61 82 -95 163q-30 69 -30 147q0 13 1 27q5 132 87 214q80 79 209 79q127 0 194 -64q63 -60 63 -159v-17q-7 -105 -68 -187q-65 -86 -198 -169l268 -351l112 209q8 16 10 33q1 6 1 11q0 10 -3 19q-4 12 -10.5 20t-9.5 17 q-1 4 -1 7v3q0 1 2 7q7 19 21 19h258q10 0 15 -6q1 -1 1 -4v-2q0 -3 -1 -7q-6 -11 -34 -25l-33 -15q-18 -8 -35 -19q-74 -48 -126 -126l-124 -194l119 -147q49 -64 156 -114q27 -12 34 -24q2 -6 2 -9q-2 -4 -2 -5q-5 -5 -14 -5h-244q-35 0 -78 68q-33 51 -68 92 q-81 -99 -172 -145q-92 -45 -207 -45q-136 0 -217 81q-73 75 -73 191zM272 316q0 -102 56 -174q61 -80 156 -80q81 0 144.5 44t112.5 108l-303 401q-157 -114 -165 -278q-1 -10 -1 -21zM416 1041q0 -141 111 -282q91 54 133 122q41 67 48 170v15q0 68 -25 117 q-28 53 -115 53q-68 0 -107 -45q-40 -48 -44 -129q-1 -11 -1 -21z" />
<glyph unicode="'" horiz-adv-x="426" d="M118 1409v4q0 30 54 30h47q54 0 54 -29v-5l-51 -440q0 -12 -19 -12h-15q-18 0 -18 12z" />
<glyph unicode="(" horiz-adv-x="682" d="M139 377v380q0 138 18 264t80 222q32 50 63.5 90.5t82.5 71.5q100 62 197 62q22 0 22 -30q0 -20 -2 -22q-5 -8 -59.5 -21t-117.5 -76q-70 -70 -100 -202q-28 -129 -28 -476v-143q0 -349 28 -478q30 -130 100 -200q37 -35 68 -53q32 -19 82 -34q26 -9 28 -12q0 -1 1 -20 v-5q0 -15 -5 -21q-6 -6 -21 -6q-71 0 -147 37q-80 39 -151.5 130.5t-100.5 187.5q-38 129 -38 354z" />
<glyph unicode=")" horiz-adv-x="682" d="M138 -300q1 19 3 20q1 3 27 12q48 14 82 34t68 53q71 70 100 200q29 134 29 478v143q0 343 -29 476q-29 131 -100 202q-64 63 -118.5 76t-58.5 21q-2 4 -2 22q0 30 22 30q96 0 197 -62q51 -31 82.5 -71.5t64.5 -90.5q60 -96 78.5 -222t18.5 -264v-380q0 -230 -38 -354 q-30 -96 -101 -187.5t-150 -130.5q-77 -37 -147 -37q-15 0 -21 6q-7 6 -7 22v4z" />
<glyph unicode="*" d="M196 483q0 15 22 28l209 121l-209 120q-22 12 -22 27q0 7 4 14l26 46q7 12 20 12q11 0 25 -8l208 -120v240q0 37 27 37h52q27 0 27 -37v-240l208 120q14 8 25 8q13 0 20 -12l27 -46q3 -6 3 -12q0 -16 -22 -29l-209 -120l209 -121q22 -14 22 -29q0 -6 -3 -12l-27 -46 q-7 -12 -20 -12q-11 0 -25 8l-208 120v-240q0 -37 -27 -37h-52q-27 0 -27 37v240l-208 -120q-14 -9 -25 -9q-13 0 -20 13l-26 46q-4 7 -4 13z" />
<glyph unicode="+" d="M163 605v53q0 26 37 26h279v279q0 37 27 37h52q27 0 27 -37v-279h279q37 0 37 -26v-53q0 -26 -37 -26h-279v-279q0 -37 -27 -37h-52q-27 0 -27 37v279h-279q-37 0 -37 26z" />
<glyph unicode="," horiz-adv-x="480" d="M92 -224q0 9 8 18q16 18 41 32q93 57 111 149h-1q-110 0 -110 86v82q0 87 110 87t110 -87v-82q0 -21 -9.5 -49t-15.5 -48q-41 -112 -153 -189q-37 -23 -60 -23q-15 0 -24 9q-7 7 -7 15z" />
<glyph unicode="-" d="M163 605v53q0 26 37 26h664q37 0 37 -26v-53q0 -26 -37 -26h-664q-37 0 -37 26z" />
<glyph unicode="." horiz-adv-x="480" d="M147 61v82q0 87 110 87t110 -87v-82q0 -86 -110 -86t-110 86z" />
<glyph unicode="/" d="M0 -70l843 1544h140l-842 -1544h-141z" />
<glyph unicode="0" horiz-adv-x="1100" d="M114 431v558q0 188 118.5 322.5t332.5 134.5q219 0 335 -135t116 -322v-558q0 -189 -132.5 -322.5t-318.5 -133.5q-234 0 -342.5 134t-108.5 322zM311 454q0 -104 35.5 -256t218.5 -152q126 0 190 120t64 288v512q0 168 -58 289q-58 119 -194 119h-2q-188 -3 -221 -154 t-33 -254v-512z" />
<glyph unicode="1" horiz-adv-x="1100" d="M262 1252v47l384 164v-1317q0 -66 49 -83q50 -17 50 -42q0 -21 -20 -21h-339q-21 0 -21 21q0 24 50 42t50 83v1106h-203z" />
<glyph unicode="2" horiz-adv-x="1100" d="M158 1080v130q10 28 20 47q42 68 115.5 120.5t178.5 68.5q42 6 83 6q133 0 253 -67q157 -89 160 -295v-4q0 -137 -73 -258q-74 -123 -175 -235l-205 -230q-104 -117 -161 -213h370q129 0 246 42l2 -150q-57 -35 -123 -38.5t-123 -3.5h-559v78q0 87 51 152t163 185 q66 63 130 135l125 143q86 103 126 206q28 72 28 135q0 59 -25 107q-53 99 -153 138q-58 22 -121 22q-48 0 -99 -12q-119 -30 -195 -142q-24 -36 -35 -67h-4z" />
<glyph unicode="3" horiz-adv-x="1100" d="M181 209h6q62 -104 203 -136q51 -12 97 -12q82 0 151 36q103 54 140 156q20 55 20 110q0 47 -14 93q-32 102 -133 177.5t-272 78.5l-2 28q69 22 158 61.5t137 120.5q38 65 38 131q0 19 -3 39q-15 84 -70 141q-74 76 -175 76q-9 0 -17 -1q-113 -7 -185 -94 q-33 -40 -46 -86h-4v155q84 92 174 127.5t173 35.5q228 -3 304 -184q21 -53 21 -105q0 -128 -133 -254q-28 -27 -66 -55q144 -71 209 -184q57 -99 57 -206q0 -15 -1 -30q-18 -216 -223 -363q-108 -77 -268 -93q-25 -3 -49 -3q-128 0 -222 73z" />
<glyph unicode="4" horiz-adv-x="1100" d="M83 415v114l581 875h180v-848h202v-141h-202v-269q0 -65 71.5 -82.5t71.5 -42.5q0 -21 -21 -21h-423q-21 0 -21 21q0 25 71 42.5t71 82.5v269h-581zM211 556h453v690z" />
<glyph unicode="5" horiz-adv-x="1100" d="M118 259h2q51 -90 170 -139q96 -40 181 -40q20 0 40 2q116 12 197.5 100t101.5 209q5 30 5 59q0 71 -28 141q-39 97 -140 150q-68 35 -149 35q-14 0 -29 -1q-98 -8 -185 -87q-29 -27 -49 -31q-13 -3 -30 -3q-9 0 -18 1q-15 0 -28.5 1t-13.5 31v684q0 26 4 29q4 4 42 4 h494q55 0 119 -3.5t119 -37.5v-174q-110 41 -238 41h-444v-468l87 50q41 24 87 41q85 31 165 31q45 0 90 -10q121 -28 207 -107q81 -78 112 -175q22 -69 22 -138q0 -29 -4 -58q-24 -168 -145 -284q-66 -64 -157.5 -96.5t-190.5 -38.5q-22 -1 -43 -1q-202 0 -348 94z" />
<glyph unicode="6" horiz-adv-x="1100" d="M84 466v9q3 321 141.5 548t386.5 397q27 18 29 19q23 12 55 12h3q34 -1 66 -1q43 0 43 -9q0 -5 -16 -13q-168 -117 -277 -230.5t-199 -283.5q99 57 225 57q32 0 66 -4q166 -18 273 -117q164 -150 166 -375q0 -206 -145 -356q-139 -145 -332 -145h-15q-208 6 -340 150 q-130 140 -130 342zM251 459q0 -179 89 -300q84 -116 201 -116h12q124 6 212 137.5t88 310.5t-88 301q-85 115 -202 115h-12q-125 -7 -212.5 -138.5t-87.5 -309.5z" />
<glyph unicode="7" horiz-adv-x="1100" d="M171 25q0 50 21 98q25 59 51 109l296 524l278 474h-399q-129 0 -237 -41v174q54 34 117.5 37.5t119.5 3.5h494q37 0 41.5 -4t4.5 -42q0 -67 -30 -130l-265 -538l-264 -537q-38 -74 -57 -153l-170 1q-1 12 -1 24z" />
<glyph unicode="8" horiz-adv-x="1100" d="M65 402q0 161 92 260t239 135q-253 60 -253 305v4q1 171 128 258q122 84 322 84h14q210 -3 310 -102q95 -94 95 -243v-15q-6 -236 -267 -292q139 -35 226 -131.5t93 -261.5v-20q0 -199 -136 -297q-144 -103 -372 -106h-8q-222 0 -351 108q-132 109 -132 314zM272 405 q0 -190 77.5 -270.5t224.5 -80.5q146 0 223 78t77 273t-87.5 273t-212.5 78q-126 0 -214 -81t-88 -270zM330 1104q0 -116 49.5 -197.5t199.5 -81.5q149 0 199 81.5t50 197.5q0 115 -58.5 197t-190.5 82q-133 0 -191 -82t-58 -197z" />
<glyph unicode="9" horiz-adv-x="1100" d="M84 950v3q0 203 144 353q139 145 332 145h15q207 -6 340 -150q131 -142 131 -345v-6q-4 -322 -142.5 -549t-385.5 -396q-27 -18 -29 -19q-24 -12 -56 -12q-2 0 -3 1h-65q-44 0 -44 9q0 5 16 13q168 117 277.5 229.5t199.5 283.5q-99 -57 -225 -57q-33 0 -67 4 q-167 18 -273 117q-164 152 -165 376zM276 933q0 -179 89 -300q84 -116 201 -116h12q124 6 212 137.5t88 310.5q0 178 -88 300q-85 116 -201 116h-12q-126 -7 -213.5 -138.5t-87.5 -309.5z" />
<glyph unicode=":" horiz-adv-x="512" d="M147 61v82q0 87 110 87t110 -87v-82q0 -86 -110 -86t-110 86zM147 779v82q0 87 110 87t110 -87v-82q0 -87 -110 -87t-110 87z" />
<glyph unicode=";" horiz-adv-x="512" d="M98 -224q0 9 8 18q16 18 41 32q93 57 111 149h-1q-110 2 -110 86v82q0 87 110 87t110 -87v-82q0 -21 -10 -49l-16 -48q-39 -112 -152 -189q-37 -24 -60 -24q-15 0 -24 10q-7 7 -7 15zM147 779v82q0 87 110 87t110 -87v-82q0 -87 -110 -87t-110 87z" />
<glyph unicode="&#x3c;" d="M178 629q0 16 21 36l617 603q20 19 36 19q12 0 22 -10l48 -49q9 -10 9 -22q0 -17 -19 -36l-551 -539l551 -538q19 -20 19 -37q0 -11 -9 -21l-48 -48q-10 -10 -22 -10q-16 0 -36 19l-628 611q-10 10 -10 22z" />
<glyph unicode="=" d="M167 458v52q0 27 37 27h663q37 0 37 -27v-52q0 -27 -37 -27h-663q-37 0 -37 27zM167 753v52q0 27 37 27h663q37 0 37 -27v-52q0 -27 -37 -27h-663q-37 0 -37 27z" />
<glyph unicode="&#x3e;" d="M178 57q0 16 21 36l551 539l-551 538q-21 19 -21 36q0 11 10 22l48 49q10 10 21 10q17 0 37 -19l628 -612q10 -10 10 -22q0 -16 -20 -36l-618 -602q-20 -19 -37 -19q-11 0 -21 10l-48 48q-10 10 -10 22z" />
<glyph unicode="?" horiz-adv-x="784" d="M78 1077q0 133 87 211q87 77 236 77q154 0 243 -75q87 -75 87 -206q0 -164 -167 -268l-43 -26q-61 -39 -77 -72q-18 -31 -21 -105l-4 -172q0 -53 -10 -83q-11 -26 -30 -26q-17 0 -27 30q-11 29 -11 80v307q124 88 170 160q47 74 47 174q0 109 -45 165q-45 54 -135 54 q-79 0 -116 -50q-37 -52 -47 -183q-2 -23 -20 -35q-18 -13 -51 -13q-34 0 -51 13q-15 13 -15 43zM273 59v80q0 84 106 84q107 0 107 -84v-80q0 -83 -107 -83q-106 0 -106 83z" />
<glyph unicode="@" horiz-adv-x="2119" d="M48 388q0 444 321 750q321 304 788 304q374 0 618 -202q244 -204 244 -538q0 -289 -180 -524q-51 -66 -117.5 -122t-143.5 -87q-89 -38 -175 -38q-64 0 -126 21q-95 33 -95 135v4l-308 -105q-33 -11 -55 -11h-41q-142 7 -218 116q-61 85 -61 209q0 111 45 223t110 188 q37 44 111 92q24 15 55 27l174 60l176 60q18 6 34 6h5q63 -3 147 -32q6 -2 9 -4q20 -9 50 -20q12 -4 22 -4q16 0 30 9q26 18 37 30q6 7 15 7q4 0 9 -2q18 -8 18 -18v-2l-167 -721q-9 -40 -9 -71q0 -88 72 -106q18 -5 37 -5q38 0 82 18q68 26 123 77q90 82 150 238 q60 158 60 349q0 343 -212 507t-516 164q-227 0 -447 -113q-221 -112 -359 -345q-138 -231 -138 -525q0 -229 92 -416q91 -186 269 -291q175 -104 422 -104q208 0 393 73q168 67 298 175q4 4 9 4q6 0 13 -7t7 -17q0 -9 -5 -19q-11 -24 -25 -37q-147 -136 -334.5 -195.5 t-400.5 -59.5q-400 0 -656 252q-256 253 -256 643zM694 352q0 -85 32 -145q47 -93 140 -121q37 -11 75 -11q12 0 25 1q23 2 56 13q22 7 75 26l90 30l143 624q-32 38 -91.5 70.5t-111.5 34.5h-4q-20 0 -41 -8l-78 -26l-78 -27q-26 -9 -46 -26q-77 -66 -120.5 -160t-57.5 -186 q-8 -47 -8 -89z" />
<glyph unicode="A" horiz-adv-x="1593" d="M51 11q0 2 2 10q6 13 34 26l33 15q18 9 35 21q37 26 54 63l567 1281h62l124 -289l152 -352l152 -352l124 -288q15 -37 59 -67q23 -15 45.5 -25t36.5 -19q10 -7 13 -14q2 -4 2 -8q0 -3 -2 -7q-3 -6 -12 -6h-338q-9 0 -18 6q-10 7 -12 15q-2 3 -2 6q0 9 12 19q9 9 22 19 t19 27q3 8 3 18q0 17 -8 37l-148 342h-583l-71 -171l-72 -171q-9 -20 -10 -36q-1 -7 -1 -14q0 -10 3 -19q3 -13 10 -21.5t10 -17.5q1 -8 1 -11t-2 -7q-7 -21 -22 -21h-258q-10 0 -14 6q0 1 -2 5zM512 570h515l-261 609l-127 -305z" />
<glyph unicode="B" horiz-adv-x="1240" d="M113 21q0 25 50 43t50 82v1112q0 63 -50 81t-50 44q0 21 21 21h570q98 0 204.5 -34.5t163.5 -134.5q46 -80 46 -194q-2 -108 -62 -192q-43 -63 -133 -104q142 -46 208 -159q50 -89 50 -214q-2 -119 -68 -212q-57 -81 -161 -120.5t-191 -39.5h-627q-21 0 -21 21zM393 73 h226q73 0 147.5 21.5t128.5 74.5q83 81 83 214q0 128 -87 214q-94 90 -251 90h-247v-614zM393 774h276q118 13 190 82q75 73 75 194q0 118 -79 194q-85 81 -226 81h-236v-551z" />
<glyph unicode="C" horiz-adv-x="1405" d="M67 701q0 337 230.5 540.5t550.5 203.5q115 0 244.5 -25.5t246.5 -100.5l-24 -210q-4 -18 -20 -18h-3q-12 1 -26 28q-58 125 -174 184q-108 53 -230 53h-21q-270 -12 -422 -216q-137 -183 -137 -405q0 -25 2 -50q14 -230 162 -419t402 -201q24 -1 46 -1q128 0 211 39 q96 46 161 185q13 28 32 28q4 0 8 -1q16 -6 16 -23q0 -8 -4 -18l-87 -243q-96 -40 -195 -54t-188 -14q-307 0 -544 196t-237 542z" />
<glyph unicode="D" horiz-adv-x="1585" d="M108 13q0 25 50 43t50 83v1123q0 64 -50 81.5t-50 43.5q0 21 21 21q42 -1 85 -1q42 0 86 1q86 3 168 5h59q153 0 308 -8q183 -11 330 -74q138 -61 229 -187.5t106 -352.5q2 -33 2 -64q0 -166 -61 -298q-74 -158 -206 -260q-224 -172 -546 -176h-80q-58 0 -109 1h-117 q-83 0 -126 3h-24q-40 0 -104 -6q-21 0 -21 22zM399 1313v-1213q124 -23 238 -23q44 0 86 3q153 12 271 74q141 74 222 226q74 140 74 356v33q-4 162 -57.5 271.5t-141.5 175.5q-129 96 -313 113q-63 5 -127 5q-123 0 -252 -21z" />
<glyph unicode="E" horiz-adv-x="1251" d="M155 21q0 25 50 43t50 82v1111q0 65 -50 82.5t-50 43.5q0 21 21 21h928v-257q0 -21 -21 -21q-10 0 -37 40q-50 69 -86.5 107t-96.5 38h-427v-543h229q64 0 84 51.5t46 51.5q20 0 20 -21v-254q0 -21 -20 -21q-26 0 -49 51t-87 51h-223v-583h427q93 0 157.5 71.5 t97.5 111.5q18 22 28 22q21 0 21 -21q0 -13 -2 -21l-73 -257h-919q-18 0 -18 21z" />
<glyph unicode="F" horiz-adv-x="1139" d="M155 21q0 12 21 25l35 23q21 13 34 35q10 20 10 42v1111q0 65 -50 82.5t-50 43.5q0 21 21 20h928v-256q0 -21 -21 -21q-10 0 -37 40q-50 69 -86.5 107t-96.5 38h-427v-543h229q42 0 74 37q18 22 29 44t27 22q20 0 20 -21v-254q0 -21 -20 -21q-18 0 -30.5 25.5t-33.5 49.5 q-28 28 -66 28h-229v-532q0 -28 13 -49q12 -17 30 -29l33 -21q23 -14 23 -26q0 -6 -1 -9q-7 -12 -19 -12h-341q-19 0 -19 21z" />
<glyph unicode="G" horiz-adv-x="1563" d="M67 701q0 337 230.5 540.5t550.5 203.5q115 0 244.5 -25.5t246.5 -100.5l-24 -210q-4 -18 -20 -18h-3q-12 1 -26 28q-65 139 -161.5 185t-256.5 46q-223 0 -397 -155t-174 -494q0 -218 162.5 -421t408.5 -215q24 -1 46 -1q114 0 192 30q93 36 156 146v188q-2 31 -32 48 q-27 14 -79 35.5t-52 42.5t21 21h401q21 0 21 -21q0 -26 -50 -44t-50 -82v-389q-154 -7 -297 -43q-72 -19 -142 -26t-135 -7q-307 0 -544 196t-237 542z" />
<glyph unicode="H" horiz-adv-x="1638" d="M155 21q0 25 50 43t50 82v1111q0 64 -50 82t-50 44q0 21 21 21h339q20 0 20 -21q0 -26 -50 -44t-50 -82v-468h845v468q0 64 -50 82t-50 44q0 21 21 21h339q21 0 21 -21q0 -26 -50.5 -44t-50.5 -82v-1111q0 -65 50.5 -82.5t50.5 -42.5q0 -21 -21 -21h-339q-21 0 -21 21 q0 25 50 43t50 82v551h-845v-551q0 -65 50 -82.5t50 -42.5q0 -21 -20 -21h-339q-21 0 -21 21z" />
<glyph unicode="I" horiz-adv-x="690" d="M155 21q0 25 50 43t50 82v1111q0 65 -50 82.5t-50 43.5q0 21 21 21h338q21 0 21 -21q0 -26 -50 -43.5t-50 -82.5v-1110q0 -66 50 -83.5t50 -42.5q0 -21 -21 -21h-339q-20 0 -20 21z" />
<glyph unicode="J" horiz-adv-x="682" d="M110 -349q39 24 73 61.5t53 98.5q12 41 12.5 115t0.5 248v1084q0 64 -50 82t-50 44q0 20 21 20h339q21 0 21 -20q0 -26 -50 -44t-50 -82v-1078q0 -197 -26.5 -293t-91.5 -164q-90 -92 -202 -122v50z" />
<glyph unicode="K" horiz-adv-x="1487" d="M155 21q0 25 50 43t50 82v1111q0 64 -50 82t-50 44q0 21 21 21h339q20 0 20 -21q0 -26 -50 -44t-50 -82v-511l523 495l132 126q36 36 72 36q18 0 36 -9l106 -52q17 -10 17 -24q0 -6 -3 -13l-52 -146l-69 29q-39 16 -72 16q-52 0 -91 -39l-403 -393l752 -694 q21 -21 44.5 -31.5t23.5 -25.5q0 -21 -20 -21h-339q-21 0 -21 21q0 8 11 18q18 15 20 27v1q0 13 -36 44l-631 582v-547q0 -65 50 -82.5t50 -42.5q0 -21 -20 -21h-339q-21 0 -21 21z" />
<glyph unicode="L" horiz-adv-x="1251" d="M155 21q0 25 50 43t50 82v1111q0 64 -50 82t-50 44q0 21 21 21h339q20 0 20 -21q0 -26 -50 -44t-50 -82l1 -1163h427q93 0 157.5 71.5t97.5 111.5q18 22 28 22q21 0 21 -21q0 -13 -2 -21l-73 -257h-916q-21 0 -21 21z" />
<glyph unicode="M" horiz-adv-x="1908" d="M134 21q0 25 50 43t50 82v1111q0 64 -50 82t-50 44q0 21 21 21h266l547 -1122l530 1122h279q21 0 21 -21q0 -26 -50.5 -44t-50.5 -82v-1111q0 -65 50.5 -82.5t50.5 -42.5q0 -21 -21 -21h-339q-21 0 -21 21q0 25 50 43t50 82v1071l-577 -1247h-39l-571 1200v-1024 q0 -65 50 -82.5t50 -42.5q0 -21 -21 -21h-254q-21 0 -21 21z" />
<glyph unicode="N" horiz-adv-x="1644" d="M134 21q0 25 50 43t50 82v1111q0 64 -50 82t-50 44q0 21 21 21h257l957 -1201v1054q0 64 -49.5 82t-49.5 44q0 21 20 21h255q21 0 21 -21q0 -26 -50 -44t-50 -82l-1 -1300l-177 43l-958 1189v-1043q0 -65 50 -82.5t50 -42.5q0 -21 -21 -21h-254q-21 0 -21 21z" />
<glyph unicode="O" horiz-adv-x="1610" d="M48 669q0 18 1 36q12 341 220.5 539t538.5 202h10q323 0 545 -198q207 -185 207 -488q0 -27 -2 -55q-21 -344 -238.5 -533.5t-523.5 -206.5q-23 -1 -46 -1q-278 0 -492 192q-220 196 -220 513zM257 702q0 -271 153 -462.5t398 -193.5h5q239 0 393 204q152 202 152 446v6 q-2 249 -130 452.5t-420 203.5q-307 -1 -429 -193.5t-122 -462.5z" />
<glyph unicode="P" horiz-adv-x="1237" d="M134 21q0 25 49 43t49 82l2 1111q0 64 -50 82t-50 44q0 21 21 21h590q103 0 215 -36.5t173 -141.5q48 -85 48 -204q-2 -113 -65 -203q-54 -77 -153.5 -114.5t-181.5 -37.5h-367v-521q0 -65 50 -82.5t50 -42.5q0 -21 -20 -21h-339q-21 0 -21 21zM414 737h232q69 0 140 20 t122 71q80 77 80 204q0 122 -83 204q-89 85 -239 85h-252v-584z" />
<glyph unicode="Q" horiz-adv-x="1610" d="M48 669q0 18 1 36q12 341 220.5 539t538.5 202h10q323 0 545 -198q207 -185 207 -488q0 -27 -2 -55q-20 -329 -221 -517.5t-488 -218.5q68 -25 125 -52q218 -101 320 -101q34 0 100 19v-50q-97 -56 -142 -105q-69 9 -134 28q-66 20 -182 68q-204 83 -271 83 q-17 0 -42 -10q-28 -11 -108 -64v63q106 82 165 119q-270 27 -461 228q-181 189 -181 474zM257 702q0 -271 153 -462.5t398 -193.5h5q239 0 393 204q152 202 152 446v6q-2 249 -130 452.5t-420 203.5q-307 -1 -429 -193.5t-122 -462.5z" />
<glyph unicode="R" horiz-adv-x="1368" d="M134 21q0 25 50 43t50 82v1111q0 64 -50 82t-50 44q0 21 21 21h590q103 0 215 -36.5t173 -141.5q48 -85 48 -204q-2 -113 -65 -203q-50 -71 -139 -108.5t-169 -42.5l455 -596q28 -23 73 -27q28 -3 28 -21v-3q-3 -21 -21 -21h-267q-9 0 -68 78l-137 186l-160 221 q-82 113 -137 182h-160v-521q0 -65 50 -82.5t50 -42.5q0 -21 -20 -21h-339q-21 0 -21 21zM414 737h232q69 0 140 20t122 71q80 77 80 204q0 122 -83 204q-89 85 -239 85h-252v-584z" />
<glyph unicode="S" horiz-adv-x="1075" d="M64 274q0 10 7 20q8 13 21 13q12 -3 25 -29q64 -139 161 -186q80 -39 203 -39q26 0 54 2q81 5 155.5 42.5t119.5 109.5q47 75 47 181v11q-3 113 -86 173q-38 28 -92 44q-106 29 -216.5 41t-209.5 60q-89 42 -133 123.5t-44 177.5q0 188 131 307q134 124 338 124h30 q223 -10 379 -111l-24 -210q-2 -18 -19 -18h-4q-13 1 -25 28q-43 90 -125 153.5t-177 67.5h-16q-92 0 -164 -33q-47 -24 -75 -53q-26 -28 -46 -69q-16 -33 -25 -77q-7 -32 -7 -61q0 -39 12 -72q21 -67 72 -103q39 -29 85 -40q25 -7 61 -13.5t75 -12.5l120 -19q63 -9 124 -27 q100 -32 149 -85q36 -41 59 -90q27 -66 27 -145q0 -214 -174 -356q-90 -74 -199 -109q-88 -28 -188 -32q-22 -1 -43 -1q-139 0 -266 39l-95 264q-2 5 -2 10z" />
<glyph unicode="T" horiz-adv-x="1255" d="M43 1147v185q0 54 18.5 65.5t95.5 11.5h944q83 0 98.5 -10t15.5 -67v-185q0 -21 -21 -21q-9 0 -38 40q-51 69 -87.5 107t-96.5 38h-251v-1165q0 -65 50 -83t50 -43q0 -20 -20 -20h-339q-21 0 -21 20q0 25 50 43t50 83v1165h-255q-60 0 -97.5 -38t-87.5 -107 q-28 -40 -37 -40q-21 0 -21 21z" />
<glyph unicode="U" horiz-adv-x="1554" d="M134 1383q0 21 21 21h339q20 0 20 -21q0 -26 -49 -42.5t-49 -80.5v-539q0 -153 10 -271t52 -199q41 -81 126 -123t235 -42q264 0 358 208q67 146 67 427v536q0 64 -50 82t-50 44q0 21 21 21h255q20 0 20 -21q0 -26 -49.5 -44t-49.5 -82v-669q-1 -149 -27.5 -272.5 t-97.5 -207.5q-127 -147 -397 -147q-171 0 -291 32t-192 116q-122 141 -122 479v670q0 64 -50 81.5t-50 43.5z" />
<glyph unicode="V" horiz-adv-x="1479" d="M57 1392q0 3 2 6q4 6 12 6h339q9 0 18 -6q9 -8 12 -15q1 -3 1 -5q0 -10 -11 -20l-22 -20q-12 -10 -19 -25q-4 -10 -4 -21q0 -14 7 -29l424 -1086l454 930q13 26 13 47q0 18 -9 32q-19 30 -59 78l-49 57l124 94q8 7 17 7q10 0 22 -10l82 -84q26 -27 26 -66q0 -22 -8 -47 q-24 -71 -71 -167l-490 -1016q-7 -17 -14 -26q-8 -6 -16 -6h-151q-10 0 -16 8q-3 3 -10.5 23t-10.5 29l-378 1050q-40 106 -58 148q-18 37 -59 67q-24 15 -46.5 24.5t-36.5 19.5q-9 5 -12 14q-3 4 -3 9z" />
<glyph unicode="W" horiz-adv-x="2048" d="M16 1391q0 4 1 7q3 6 12 6h339q9 0 18 -6q9 -8 12 -15q1 -3 1 -5q0 -10 -11 -20l-22 -20q-12 -10 -19 -25q-4 -10 -4 -21q0 -14 7 -29l424 -1086l244 499l-157 434q-18 51 -33 87l-24 61q-18 37 -59 67q-24 15 -46.5 24.5t-36.5 19.5q-8 5 -13 14q-1 5 -1 8q0 4 1 7 q3 6 12 6h339q9 0 17 -6q10 -7 13 -15q1 -3 1 -5q0 -10 -11 -20l-23 -19q-12 -10 -18 -26q-4 -10 -4 -21q0 -14 7 -29l143 -366l103 210q12 26 12 47q0 18 -8 32q-20 30 -59 78l-50 57l125 94q8 7 17 7q10 0 22 -10l82 -84q26 -27 26 -66q0 -22 -8 -47q-24 -71 -71 -167 l-138 -286l228 -585l454 930q12 26 12 47q0 18 -8 32q-20 30 -60 78l-49 57l124 94q8 7 17 7q11 0 23 -10l82 -84q26 -27 26 -66q0 -22 -8 -47q-24 -71 -71 -167l-490 -1016q-7 -18 -15 -26q-6 -6 -16 -6h-150q-11 0 -16 8q-4 3 -11 23l-10 29l-171 475l-243 -503 q-7 -18 -15 -26q-6 -6 -16 -6h-150q-11 0 -16 8q-4 3 -11 23l-10 29l-436 1198q-14 35 -59 67q-24 15 -46.5 24.5t-36.5 19.5q-8 5 -13 14q-1 5 -1 8z" />
<glyph unicode="X" horiz-adv-x="1366" d="M36 6v5q0 16 32 30l52 21q75 32 113 84l394 552l-363 560q-39 58 -130 92q-25 8 -39 16q-24 14 -24 28v4q1 6 10 6h339q17 0 28 -13t11 -19t-7 -14.5t-17 -19t-11 -25.5v-5q0 -23 16 -45l281 -432l267 373q69 96 117 151t90 55q10 0 20 -3l99 -31q17 -7 17 -17 q0 -11 -2 -18l-42 -170l-65 15q-54 12 -87 14h-3q-32 0 -64 -47l-289 -411l387 -596q32 -51 130 -92q24 -10 38 -18q26 -15 26 -25q0 -11 -11 -11h-339q-9 0 -20 6q-19 10 -19 21t16.5 31t18.5 33v7q0 20 -13 43l-308 468l-324 -462q-29 -41 -29 -69l9 -39q0 -12 -10 -25.5 t-24 -13.5h-258q-12 0 -13 6z" />
<glyph unicode="Y" horiz-adv-x="1366" d="M47 1394v4q1 6 10 6h339q10 0 19 -6q11 -7 17 -15q3 -5 3 -10q0 -7 -7 -15q-7 -9 -17 -19.5t-11 -25.5v-5q0 -22 16 -45l337 -534l259 395q29 44 34 76q1 5 1 10q0 30 -24 78l-34 68l143 62q7 3 13 3q13 0 24 -16l60 -101q11 -19 11 -38q0 -34 -34 -69q-53 -56 -113 -143 l-266 -388q-18 -27 -23.5 -76t-5.5 -93v-351q0 -65 50 -82.5t50 -42.5q0 -21 -21 -21h-339q-21 0 -21 21q0 25 50 42.5t50 82.5v427q0 58 -28 104l-349 581q-23 34 -77 67q-28 15 -53.5 24.5t-41.5 19.5q-11 6 -17 14q-4 6 -4 11z" />
<glyph unicode="Z" horiz-adv-x="1366" d="M30 25q0 13 18 36l972 1251l-608 -1q-60 0 -97 -38t-87 -107q-28 -40 -38 -40q-21 0 -21 21v185q0 54 19 65.5t95 11.5h924q82 0 100 -17q7 -7 7 -18q0 -17 -15 -42l-982 -1234l781 1q60 0 97 37.5t88 107.5q28 39 37 39q21 0 21 -21v-185q0 -58 -15.5 -67.5t-97.5 -9.5 h-1071q-84 0 -113 9q-14 4 -14 16z" />
<glyph unicode="[" horiz-adv-x="682" d="M220 -400v1836q0 30 21 30h247q12 0 12 -28q0 -29 -17 -29h-145v-1776h145q17 0 17 -27q0 -26 -12 -26h-247q-21 0 -21 20z" />
<glyph unicode="\" d="M5 1474h141l843 -1544h-141z" />
<glyph unicode="]" horiz-adv-x="682" d="M220 -394q0 27 17 27h146v1776h-146q-17 0 -17 29q0 28 13 28h247q21 0 21 -30q0 -170 -0.5 -414.5t-0.5 -504.5v-504q0 -244 1 -413q0 -20 -21 -20h-247q-13 0 -13 26z" />
<glyph unicode="^" d="M166 912l313 518h107l313 -518h-56l-311 400l-312 -400h-54z" />
<glyph unicode="_" d="M0 -218h1021v-118h-1021v118z" />
<glyph unicode="`" d="M177 1336q0 74 74 74q24 0 42 -13l374 -258q8 -7 8 -15q0 -17 -18 -17q-5 0 -7 1l-426 159q-47 17 -47 69z" />
<glyph unicode="a" horiz-adv-x="1155" d="M62 440q0 52 7 101q12 85 66 170q26 44 89 92q22 15 49 27l161 60l161 60q17 6 32 6h5q64 -3 155 -32q8 -3 10 -4q22 -9 54 -20q13 -4 24 -4q16 0 28 9q21 18 30 30q5 7 13 7q5 0 10 -2q22 -8 22 -20v-774q0 -65 50 -82.5t50 -42.5q0 -21 -21 -21h-243q-17 0 -17 13v74 l-275 -101q-32 -11 -53 -11h-41q-142 7 -245 116t-117 268q-4 42 -4 81zM243 486q0 -22 2 -45q11 -144 78 -234q67 -93 168 -121q38 -11 77 -11q12 0 25 1q22 2 52 13l72 26l80 31v623q-41 38 -108 70.5t-119 34.5h-4q-20 0 -40 -8l-71 -26l-72 -27q-25 -10 -40 -26 q-62 -66 -83 -160q-17 -71 -17 -141z" />
<glyph unicode="b" horiz-adv-x="1139" d="M62 1383q0 21 21 21q66 3 130.5 20t129.5 39v-620l275 102q29 10 52 12q9 0 19.5 -0.5t22.5 -0.5q142 -7 244 -116q102 -111 117 -269q4 -42 4 -82q0 -52 -7 -101q-12 -85 -65 -169q-29 -47 -89 -92q-23 -17 -50 -27l-161 -60l-160 -59q-19 -6 -34 -6h-4q-63 3 -155 31 q-6 2 -9 4q-23 9 -55 20q-14 4 -25 4q-15 0 -26 -9q-22 -19 -30 -29q-5 -7 -13 -7q-5 0 -10 2q-22 8 -22 20v1246q0 64 -50 82t-50 44zM343 161q40 -39 106.5 -71.5t120.5 -33.5h6q16 0 37 8l72 26l72 27q22 8 40 26q61 65 83 159q16 73 16 146q0 21 -1 41q-11 143 -78 234 t-168 121q-41 11 -81 11q-11 0 -22 -1q-23 -3 -52 -13l-72 -27l-79 -29v-624z" />
<glyph unicode="c" horiz-adv-x="925" d="M80 458q0 54 7 105q13 88 68 176q58 93 161.5 152t238.5 65h21q163 0 300 -88l-17 -169q-2 -13 -13 -13h-3q-10 1 -18 20q-40 87 -105 126q-64 38 -156 38h-24q-109 -6 -169 -63q-53 -52 -78 -125q-26 -73 -26 -163q0 -30 3 -61q10 -149 81 -244q93 -125 208 -142 q19 -3 39 -3q90 0 199 60q57 31 77 31q5 0 8 -2q2 -2 2 -8q0 -12 -12 -38q-15 -30 -34 -47q-57 -51 -140 -70.5t-158 -19.5q-186 1 -312.5 103.5t-143.5 293.5q-4 44 -4 86z" />
<glyph unicode="d" horiz-adv-x="1231" d="M82 440q0 52 7 101q12 85 66 170q26 44 89 92q22 15 49 27l161 60l161 60q17 6 32 6h5q64 -3 155 -32q8 -3 10 -4v337q0 64 -50 82t-50 44q0 21 21 21q66 3 130.5 20t129.5 39v-1317q0 -65 50 -82.5t50 -42.5q0 -21 -21 -21h-243q-17 0 -17 13v74l-275 -101 q-32 -11 -53 -11h-41q-142 7 -245 116t-117 268q-4 42 -4 81zM263 486q0 -22 2 -45q11 -144 78 -234q67 -93 168 -121q38 -11 77 -11q12 0 25 1q22 2 52 13l72 26l80 31v624q-45 41 -110.5 71.5t-116.5 32.5h-4q-20 0 -40 -8l-71 -26l-72 -27q-25 -10 -40 -26 q-62 -66 -83 -160q-17 -71 -17 -141z" />
<glyph unicode="e" horiz-adv-x="1004" d="M62 441q0 53 9 110q28 185 147.5 296t314.5 113h4q197 0 301 -112q104 -114 104 -297q-1 -40 -3 -56.5t-41 -16.5h-637q3 -162 82 -268.5t199 -130.5q35 -8 71 -8q95 0 197 55q57 31 77 31q5 0 8 -2q3 -3 3 -9q0 -13 -13 -37q-12 -24 -19 -32l-14 -14q-109 -94 -296 -94 q-262 2 -393 168q-101 128 -101 304zM261 551h527q0 122 -55 224q-53 97 -194 97h-11q-141 -4 -202 -102t-65 -219z" />
<glyph unicode="f" horiz-adv-x="683" d="M68 860v2q0 16 19 25q20 9 83 43q15 8 29 14q3 1 8 1v82q0 127 23 207q15 51 43 85q13 17 38 26l255 95q9 3 34 5h4q22 0 41 -12q27 -19 35 -33q6 -12 6 -32q0 -8 -1 -17q-2 -47 -13 -50h-3q-11 0 -32 15q-48 31 -95 31q-28 0 -55 -11q-84 -36 -94 -137q-4 -38 -4.5 -82 t-0.5 -90v-79l238 5h1q15 0 15 -26q0 -14 -4 -34q-10 -47 -45 -47l-205 1v-701q0 -65 50 -82.5t50 -42.5q0 -21 -21 -21h-339q-21 0 -21 21q0 25 50 42.5t50 82.5v699q-38 -1 -114 -5h-5q-19 0 -20 20z" />
<glyph unicode="g" horiz-adv-x="1103" d="M62 440q0 52 7 101q12 85 66 170q26 44 89 92q22 15 49 27l161 60l161 60q17 6 32 6h5q64 -3 155 -32q8 -3 10 -4q22 -9 54 -20q13 -4 24 -4q16 0 28 9q21 18 30 30q5 7 13 7q5 0 10 -2q22 -8 22 -20v-1100q0 -165 -47 -206t-134 -73l-275 -103q-32 -11 -53 -11 q-26 0 -41 1q-141 5 -245 116q-54 59 -86 141l178 67q18 -51 48 -92q68 -92 168 -121q38 -10 75 -10q14 0 27 1q22 2 52 12q12 5 31 12l41 15q48 24 64 97t16 97l-1 324l-274 -101q-32 -11 -53 -11h-41q-142 7 -245 116t-117 268q-4 42 -4 81zM243 486q0 -22 2 -45 q11 -144 78 -234q67 -93 168 -121q38 -11 77 -11q12 0 25 1q22 2 52 13l71 26l80 30v54h1v570q-41 38 -108 70.5t-119 34.5h-4q-20 0 -40 -8l-72 -26l-71 -27q-25 -10 -40 -26q-62 -66 -83 -160q-17 -71 -17 -141z" />
<glyph unicode="h" horiz-adv-x="1207" d="M82 21q0 25 50 43t50 82v1111q0 64 -50 82t-50 44q0 21 21 21q66 3 130.5 20t128.5 39v-610l97 37q42 16 80 29q92 32 191 42q12 1 25 1q84 0 160 -57q121 -93 121 -399v-360q0 -65 50 -82.5t50 -42.5q0 -21 -20 -21h-243q-17 0 -17 13v493q0 219 -91 308q-58 57 -142 57 q-48 0 -105 -19l-56 -20l-57 -22l-43 -16v-648q0 -65 50 -82.5t50 -42.5q0 -21 -20 -21h-339q-21 0 -21 21z" />
<glyph unicode="i" horiz-adv-x="593" d="M112 21q0 25 50 43t50 82v640q0 63 -50 81t-50 44q0 21 21 21q66 3 130.5 20.5t128.5 39.5v-846q0 -65 50 -82.5t50 -42.5q0 -21 -20 -21h-339q-21 0 -21 21zM193 1290q0 110 109 110t109 -110q0 -111 -109 -111t-109 111z" />
<glyph unicode="j" horiz-adv-x="487" d="M22 -517q95 57 127 160q12 41 12.5 115t0.5 248v780q0 63 -50 81t-50 44q0 21 21 21q66 3 130.5 20.5t129.5 39.5v-980q-1 -197 -27 -293t-91 -164q-93 -95 -203 -122v50zM143 1290q0 110 109 110q110 0 110 -110q0 -111 -110 -111q-109 0 -109 111z" />
<glyph unicode="k" horiz-adv-x="1163" d="M102 21q0 25 50 43t50 82v1111q0 64 -50 82t-50 44q0 21 21 21q66 3 130.5 20t128.5 39v-912l354 283q61 50 108 79q27 16 51 16q18 0 35 -9l74 -46q12 -8 12 -18q0 -5 -3 -10l-47 -105l-50 26q-30 15 -58 15q-34 0 -64 -22l-256 -195l348 -340q108 -105 140 -119 q23 -11 47 -11q10 0 21 2q8 2 15 2q20 0 27 -15q2 -6 2 -10q0 -10 -10 -14l-64 -31q-52 -23 -97 -23q-29 0 -55 11q-65 26 -119 79l-381 371q-8 -8 -30 -24v-297q0 -65 50 -82.5t50 -42.5q0 -21 -20 -21h-339q-21 0 -21 21z" />
<glyph unicode="l" horiz-adv-x="597" d="M102 21q0 25 50 43t50 82v1111q0 64 -50 82t-50 44q0 21 21 21q66 3 130.5 20t128.5 39v-1317q0 -65 50 -82.5t50 -42.5q0 -21 -20 -21h-339q-21 0 -21 21z" />
<glyph unicode="m" horiz-adv-x="1797" d="M99 21q0 25 50 43t50 82v640q0 63 -50 81t-50 44q0 21 21 21q66 3 130.5 20.5t128.5 39.5v-131l84 32l72 26q92 32 191 42q12 1 25 1q84 0 160 -57q26 -21 42 -42l81 31l70 25q92 32 190 42q13 1 26 1q83 0 159 -57q122 -93 122 -399v-360q0 -65 50 -82.5t50 -42.5 q0 -21 -21 -21h-243q-16 0 -16 13v493q0 219 -91 308q-58 57 -142 57q-48 0 -105 -19l-49 -18l-52 -19q50 -103 50 -309v-360q0 -65 50 -82.5t50 -42.5q0 -21 -20 -21h-339q-21 0 -21 21q0 25 50 43t50 82v360q0 219 -91 308q-58 57 -142 57q-48 0 -105 -19l-68 -25l-67 -25 v-656q0 -65 50 -82.5t50 -42.5q0 -21 -20 -21h-339q-21 0 -21 21z" />
<glyph unicode="n" horiz-adv-x="1191" d="M82 21q0 25 50 43t50 82v640q0 63 -50 81t-50 44q0 21 21 21q66 3 130.5 20.5t128.5 39.5v-139l97 37q42 16 80 29q92 32 191 42q12 1 25 1q84 0 160 -57q121 -93 121 -399v-360q0 -65 50 -82.5t50 -42.5q0 -21 -20 -21h-243q-17 0 -17 13v493q0 219 -91 308 q-58 57 -142 57q-48 0 -105 -19l-56 -21l-57 -21l-43 -16v-648q0 -65 50 -82.5t50 -42.5q0 -21 -20 -21h-339q-21 0 -21 21z" />
<glyph unicode="o" horiz-adv-x="1107" d="M62 462v3q1 219 165 368q19 18 57 31l111 40l97 35q50 17 82 17h3q195 -8 330 -150.5t138 -340.5v-6q0 -200 -141 -338q-144 -140 -351 -146h-16q-192 0 -331 142q-144 146 -144 345zM254 481q0 -175 87.5 -303.5t212.5 -134.5h14q116 0 200 113q88 119 88 294t-88 303.5 t-212 135.5h-12q-117 0 -201 -113q-89 -120 -89 -295z" />
<glyph unicode="p" horiz-adv-x="1197" d="M112 -567q0 26 50 44t50 82v1227q0 63 -50 81t-50 44q0 21 21 21q66 3 130.5 20.5t128.5 39.5v-144l263 97q29 10 52 12q9 0 19 -0.5t22 -0.5q141 -6 245 -116q102 -111 117 -269q4 -41 4 -80q0 -54 -7 -103q-13 -85 -65 -169q-28 -45 -90 -92q-22 -16 -49 -27l-322 -119 q-17 -6 -33 -6h-4q-59 3 -152 30v-446q0 -64 50 -82t50 -44q0 -20 -20 -20h-339q-21 0 -21 20zM392 150q42 -36 103.5 -64.5t111.5 -29.5h6q16 0 37 8l72 26l71 27q23 8 41 26q60 65 82 159q17 71 17 142q0 23 -2 45q-11 143 -78 234q-68 92 -168 121q-40 11 -79 11 q-12 0 -23 -1q-23 -3 -52 -13l-63 -24l-76 -27v-640z" />
<glyph unicode="q" horiz-adv-x="1173" d="M82 442q0 51 7 99q11 85 65 170q28 46 89 92q22 16 50 27l160 60l161 60q18 6 34 6h4q65 -3 155 -32l5 -2q3 -2 6 -2v-2q23 -9 53 -18q12 -4 21 -4q16 0 27 9q21 18 30 30q5 7 13 7q5 0 10 -2q22 -8 22 -20v-1361q0 -64 50 -82t50 -44q0 -20 -21 -20h-339q-21 0 -21 20 q0 26 50 44t50 82v527l-272 -100q-30 -11 -52 -11h-42q-143 7 -244 116q-103 109 -117 268q-4 43 -4 83zM262 486q0 -22 2 -45q11 -144 78 -234q66 -92 168 -121q39 -11 77 -11q13 0 25 1q23 2 53 13l68 25l80 30v628q-42 37 -107.5 68.5t-116.5 33.5h-4q-20 0 -39 -8 l-72 -27l-72 -26q-23 -9 -40 -26q-62 -66 -83 -160q-17 -71 -17 -141z" />
<glyph unicode="r" horiz-adv-x="831" d="M122 21q0 25 50 43t50 82v640q0 63 -50 81t-50 44q0 21 21 21q66 3 130.5 20.5t129.5 39.5v-132l139 53q77 29 120 43q13 4 31 4q37 0 94 -20l-22 -251h-46q-39 146 -150 146q-11 0 -22 -1q-76 -9 -108.5 -77.5t-35.5 -161.5v-449q0 -65 49.5 -82.5t49.5 -42.5 q0 -21 -20 -21h-339q-21 0 -21 21z" />
<glyph unicode="s" horiz-adv-x="884" d="M76 229l3 20q1 15 18 15h2q10 -2 21 -24q46 -99 112.5 -140.5t168.5 -44.5h12q71 0 156 33q92 36 96 130v6q0 108 -102 137l-186 53q-99 27 -186 86q-86 58 -86 172v5q1 155 120 221q109 61 241 61q12 0 24 -1q147 -8 278 -89l-21 -175q-2 -15 -16 -15h-3q-12 1 -22 24 q-36 75 -105 125.5t-149 53.5h-4q-62 0 -121 -31q-62 -32 -76 -98q-5 -22 -5 -40q0 -63 56 -90q71 -36 165 -57q129 -29 234.5 -78t115.5 -205v-10q0 -74 -57 -148q-62 -80 -179 -121q-73 -24 -162 -27h-27q-123 0 -235 32z" />
<glyph unicode="t" horiz-adv-x="682" d="M68 860v2q0 16 19 25q20 9 83 43q15 8 29 14q3 1 8 1v171q0 50 20.5 69.5t94.5 54.5q27 13 43 13q23 0 23 -26v-279l238 5h1q15 0 15 -26q0 -14 -4 -34q-10 -47 -45 -47l-205 1v-627q0 -91 63.5 -136t108.5 -51v-32q-149 0 -251 28t-102 221v595q-38 -1 -114 -5h-5 q-19 0 -20 20z" />
<glyph unicode="u" horiz-adv-x="1239" d="M85 911q0 21 21 21q66 3 130.5 20.5t129.5 39.5v-567q0 -220 91 -308q58 -57 142 -57q48 0 105 19q21 7 55 20l58 22q5 2 16.5 6t25.5 10v649q0 63 -50 81t-50 44q0 21 21 21q66 3 130.5 20.5t129.5 39.5v-846q0 -65 50 -82.5t50 -42.5q0 -21 -21 -21h-243q-17 0 -17 13 v65l-97 -38q-42 -16 -79 -28q-93 -31 -191 -41q-14 -1 -27 -1q-83 0 -158 56q-122 92 -122 399v361q0 63 -50 81t-50 44z" />
<glyph unicode="v" horiz-adv-x="1036" d="M31 920q0 3 1 6q3 5 11 5h328q7 0 16 -5q8 -7 11 -13q1 -3 1 -5q0 -9 -10 -18q-34 -31 -37 -41q-3 -9 -3 -19q0 -12 6 -25l262 -639l230 551q9 21 9 41q0 35 -28 68l-33 39l90 71q6 6 11 6q7 0 15 -8l56 -57q17 -18 17 -44q0 -15 -6 -33q-16 -48 -47 -112l-307 -686 q-5 -10 -10 -16q-5 -5 -11 -5h-84q-7 0 -11 6q-3 3 -7.5 15.5t-6.5 18.5l-327 779q-17 38 -49 60q-21 13 -41.5 22t-32.5 18q-7 4 -12 13q-1 4 -1 7z" />
<glyph unicode="w" horiz-adv-x="1647" d="M31 920q0 3 1 6q3 5 11 5h328q7 0 16 -5q8 -7 11 -13q1 -3 1 -5q0 -9 -10 -18q-34 -31 -37 -41q-3 -9 -3 -19q0 -12 6 -25l262 -639l213 510l-52 124q-17 38 -49 60q-21 13 -41.5 22t-32.5 18q-10 6 -12 13q-1 4 -1 7t1 6q3 5 11 5h328q7 0 16 -5q8 -7 11 -13q1 -3 1 -5 q0 -9 -10 -18q-34 -31 -37 -41q-3 -9 -3 -19q0 -12 6 -25l262 -639l230 551q9 21 9 41q0 35 -28 68l-33 39l89 71q5 5 12 5t15 -7l56 -57q17 -18 17 -44q0 -15 -6 -33q-16 -48 -47 -112l-307 -686q-5 -10 -10 -16q-5 -5 -11 -5h-84q-7 0 -11 6q-3 3 -7.5 15.5t-7.5 18.5 l-228 544l-252 -563q-5 -10 -10 -16q-5 -5 -11 -5h-84q-7 0 -11 6q-3 3 -7.5 15.5t-6.5 18.5l-327 779q-17 38 -49 60q-21 13 -41.5 22t-32.5 18q-7 4 -12 13q-1 4 -1 7z" />
<glyph unicode="x" horiz-adv-x="1098" d="M24 5q0 4 4 9q13 16 56 27t79 56l286 350l-265 385q-16 24 -54 44q-19 10 -37 16.5t-29 13.5q-23 13 -23 18t15 5h322q15 0 25 -14q3 -4 3 -9q0 -6 -9 -11q-15 -9 -16 -27q0 -15 12 -32l171 -249l170 209q91 111 116 133q9 8 25 8q24 0 62 -20l64 -34q9 -5 9 -14 q0 -5 -3 -11l-51 -104q-37 20 -68 35q-8 4 -16 4q-24 0 -52 -35l-203 -248l285 -413q18 -29 59 -46q15 -7 30.5 -13.5t30.5 -14.5q23 -13 23 -18t-15 -5h-322q-15 0 -25 13q-3 5 -3 9q0 6 9 12q14 8 16 26v2q0 14 -12 31l-190 277l-224 -273q-19 -26 -19 -42v-3q0 -13 5 -20 q1 -3 1 -6q0 -6 -5 -12q-9 -14 -19 -14h-208q-10 0 -10 5z" />
<glyph unicode="y" horiz-adv-x="1036" d="M30 922q0 9 13 9h328q19 0 27 -18q2 -4 2 -8q0 -12 -17 -20q-22 -12 -31 -36q-3 -9 -3 -19q0 -12 6 -25l262 -639l230 551q9 21 9 41q0 35 -28 68l-33 39l90 71q6 6 11 6q7 0 15 -8l56 -57q17 -18 17 -44q0 -15 -6 -33q-16 -48 -47 -112l-495 -1102q-30 -66 -54 -110 q-24 -42 -61 -42h-3l-80 3q-19 3 -19 19l-6 114l51 1q67 2 95 59l169 351q-15 0 -20 6q-3 3 -7.5 15.5t-6.5 18.5l-327 779q-17 38 -49 60q-26 16 -53 27t-33 26q-2 5 -2 9z" />
<glyph unicode="z" horiz-adv-x="1019" d="M51 21q0 11 16 30l632 810h-352q-52 0 -84 -33t-74 -92q-25 -33 -32 -33q-19 0 -19 17v159q0 45 16 55.5t82 10.5h622q89 0 89 -32q0 -14 -15 -33l-638 -801h434q51 2 86 35t78 93q25 34 32 34q18 0 18 -18v-158q0 -49 -13 -57t-84 -8l-685 -1q-72 1 -97 9q-12 3 -12 13z " />
<glyph unicode="{" d="M130 643q0 4 1 9q3 18 27 21q152 13 208 73q33 36 43.5 97t10.5 118v212q0 72 14.5 148.5t61.5 121.5q74 73 278 73q20 0 28 -9q10 -15 10 -25q0 -16 -30 -16q-133 -2 -180 -55q-31 -33 -39.5 -93.5t-8.5 -113.5v-143q0 -77 -10.5 -165.5t-46.5 -140.5q-57 -82 -211 -113 q153 -31 211 -113q36 -52 46.5 -140t10.5 -166v-143q0 -153 48 -206q48 -52 180 -54q16 0 22 -15q2 -6 2 -12q0 -8 -6 -16q-7 -8 -26 -8q-202 0 -278 73q-47 45 -61.5 121t-14.5 149v211q0 57 -11 118.5t-44 99.5q-35 36 -93.5 52t-113.5 20q-16 1 -22 11q-6 7 -6 19z" />
<glyph unicode="|" d="M450 -227v1717h141v-1717h-141z" />
<glyph unicode="}" d="M124 1482q0 10 11 25q6 9 27 9q203 0 279 -73q46 -45 60.5 -121.5t14.5 -148.5v-212q0 -57 10.5 -118t43.5 -97q54 -60 209 -73q23 -3 27 -21v-9q0 -12 -6 -19q-7 -10 -21 -11q-56 -4 -115 -20t-93 -52q-34 -38 -44.5 -99.5t-10.5 -118.5v-211q0 -73 -15 -149t-60 -121 q-78 -73 -279 -73q-19 0 -26 8t-7 17q0 5 2 11q6 15 23 15q133 2 181 54q48 53 48 206v143q0 78 10.5 166t46.5 140q57 83 211 113q-155 31 -211 113q-37 52 -47 140.5t-10 165.5v143q0 53 -9.5 113.5t-39.5 93.5q-48 53 -180 55q-30 0 -30 16z" />
<glyph unicode="~" d="M58 506q0 10 8 23l96 148q48 76 150 76q126 0 255 -87q69 -47 137 -47q59 0 117 35q55 32 96 107q7 12 21 12q3 0 6 -1q19 -3 22 -21q1 -3 1 -6q0 -7 -4 -16q-61 -113 -116 -164q-60 -55 -125 -55q-113 0 -248 84q-75 46 -142 46q-52 0 -99 -29l-29 -19q-17 -10 -37 -28 q-35 -33 -61 -73q-7 -10 -17 -10q-8 0 -18 6q-13 7 -13 19z" />
<glyph unicode="&#xa2;" d="M130 460q0 54 7 104q13 88 68 176q110 175 333 209v166h84v-159h4q164 0 300 -88l-17 -168q-2 -13 -13 -13h-3q-10 1 -18 20q-40 85 -105 126q-58 34 -148 38v-798q13 -1 26 -1q89 0 199 59q58 32 78 32q5 0 7 -2q3 -4 3 -10q0 -13 -13 -37q-16 -31 -34 -47 q-51 -46 -123.5 -66t-142.5 -23v-190h-84v192q-166 15 -277 116t-127 278q-4 44 -4 86zM317 519q0 -29 3 -60q10 -148 81 -243q62 -84 137 -120v767q-74 -15 -117 -56q-54 -53 -78 -124q-26 -73 -26 -164z" />
<glyph unicode="&#xa3;" d="M9 90q0 24 9 53q17 58 50 85q48 38 89 38h6l99 -7q6 50 6 98v30q-3 62 -5 124q-4 74 -14 173h-185q-15 0 -15 15v70q0 15 15 15h176q-8 78 -8 144q0 57 6 105q13 119 57 205q107 205 343 205q70 0 136 -35t99 -100q15 -32 18 -71v-7q0 -35 -25 -60q-27 -27 -55 -27 q-25 0 -52 22q-26 19 -32 63l-10 74q-12 69 -90 81q-18 2 -34 2q-55 0 -90 -30q-63 -54 -79.5 -126t-16.5 -150q0 -75 7 -149l12 -146h261q15 0 15 -15v-70q0 -15 -15 -15h-255q2 -34 2 -69t-2 -70q-6 -82 -25 -156t-35 -152l108 -37q54 -19 110 -33q61 -15 113 -15 q42 0 79 10q76 21 120 87q14 21 17 43t31 22q20 0 20 -23q0 -33 -12 -62l-22 -59q-37 -95 -118 -153q-72 -48 -151 -48q-11 0 -21 1q-91 7 -168 59q-19 13 -73.5 47.5t-75.5 52.5q-56 -86 -124 -139q-30 -22 -65 -22q-20 0 -41 7q-59 20 -81 70q-9 20 -9 45zM72 108 q0 -79 63 -79q56 0 78.5 45.5t36.5 89.5q-37 37 -76 37q-102 0 -102 -93z" />
<glyph unicode="&#xa5;" horiz-adv-x="1366" d="M47 1394v4q1 6 10 6h339q10 0 19 -6q11 -7 17 -15q3 -5 3 -10q0 -7 -7 -15q-7 -9 -17 -19.5t-11 -25.5v-5q0 -22 16 -45l337 -534q65 89 133 195l126 200q28 45 34 77v10q0 30 -23 77l-34 68l143 62q7 3 13 3q13 0 24 -16l60 -101q11 -19 11 -39q0 -34 -32 -69 q-52 -57 -115 -142q-55 -74 -112 -161l-115 -172h273v-79h-323q-11 -28 -14.5 -67t-3.5 -75h341v-79h-341v-275q0 -65 50 -82.5t50 -42.5q0 -21 -21 -21h-339q-21 0 -21 21q0 25 50 42.5t50 82.5q0 178 0.5 190.5t0.5 84.5h-303v79h303q0 15 -0.5 33.5t-0.5 39.5q0 47 -9 69 h-293v79h247l-322 537q-23 34 -77 67q-28 15 -53.5 24.5t-41.5 19.5q-11 6 -17 14q-4 6 -4 11z" />
<glyph unicode="&#xa9;" horiz-adv-x="1532" d="M20 708q0 308 219 526t528 218t528 -218t219 -526q0 -309 -219 -526.5t-528 -217.5t-528 217.5t-219 526.5zM101 708q0 -276 195 -470t471 -194t471.5 194t195.5 470q0 275 -195.5 469.5t-471.5 194.5t-471 -194.5t-195 -469.5zM421 705q0 45 6 87q11 75 59 151 q111 177 344 185h14q142 0 261 -75l-15 -144q0 -11 -11 -11h-3q-7 0 -15 17q-34 73 -90 108q-54 32 -134 32h-20q-94 -5 -145 -54q-44 -42 -67 -107q-22 -63 -22 -141q0 -25 2 -51q9 -128 69 -209q81 -107 179 -121q16 -3 34 -3q76 0 170 51q50 28 67 28q4 0 6 -2q3 -3 3 -8 q0 -12 -12 -32q-13 -27 -28 -40q-50 -45 -120 -62q-67 -16 -129 -16h-7q-160 0 -268.5 88.5t-123.5 252.5q-4 39 -4 76z" />
<glyph unicode="&#xad;" d="M163 605v53q0 26 37 26h664q37 0 37 -26v-53q0 -26 -37 -26h-664q-37 0 -37 26z" />
<glyph unicode="&#xae;" horiz-adv-x="1530" d="M20 708q0 308 219 526t528 218t528 -218t219 -526q0 -309 -219 -526.5t-528 -217.5t-528 217.5t-219 526.5zM101 708q0 -276 195 -470t471 -194t471.5 194t195.5 470q0 275 -195.5 469.5t-471.5 194.5t-471 -194.5t-195 -469.5zM448 308q0 14 29.5 24.5t29.5 48.5v653 q0 38 -29.5 48.5t-29.5 25.5q0 12 12 12l347 1q61 0 126.5 -21.5t101.5 -83.5q27 -48 29 -120q-2 -67 -39 -119q-29 -42 -81.5 -64t-99.5 -25l267 -350q17 -14 43 -16q17 -3 17 -14v-1q-1 -12 -12 -12h-157q-11 0 -121 155.5t-174 237.5h-94v-307q0 -38 29.5 -48.5 t29.5 -24.5q0 -13 -13 -13h-199q-12 0 -12 13zM613 1072v-343h136q99 0 154 53q47 45 47 120q0 72 -49 120q-52 50 -140 50h-148z" />
<glyph unicode="&#xb4;" horiz-adv-x="732" d="M127 1177q0 8 7 15l375 258q18 13 41 13q74 0 74 -74q0 -52 -47 -69l-425 -159q-3 -1 -7 -1q-18 0 -18 17z" />
<glyph unicode="&#x2000;" horiz-adv-x="758" />
<glyph unicode="&#x2001;" horiz-adv-x="1516" />
<glyph unicode="&#x2002;" horiz-adv-x="758" />
<glyph unicode="&#x2003;" horiz-adv-x="1516" />
<glyph unicode="&#x2004;" horiz-adv-x="505" />
<glyph unicode="&#x2005;" horiz-adv-x="379" />
<glyph unicode="&#x2006;" horiz-adv-x="252" />
<glyph unicode="&#x2007;" horiz-adv-x="252" />
<glyph unicode="&#x2008;" horiz-adv-x="189" />
<glyph unicode="&#x2009;" horiz-adv-x="303" />
<glyph unicode="&#x200a;" horiz-adv-x="84" />
<glyph unicode="&#x2010;" d="M163 605v53q0 26 37 26h664q37 0 37 -26v-53q0 -26 -37 -26h-664q-37 0 -37 26z" />
<glyph unicode="&#x2011;" d="M163 605v53q0 26 37 26h664q37 0 37 -26v-53q0 -26 -37 -26h-664q-37 0 -37 26z" />
<glyph unicode="&#x2012;" d="M163 605v53q0 26 37 26h664q37 0 37 -26v-53q0 -26 -37 -26h-664q-37 0 -37 26z" />
<glyph unicode="&#x2013;" d="M0 436v119h1028v-119h-1028z" />
<glyph unicode="&#x2014;" horiz-adv-x="2048" d="M266 437v118h1524v-118h-1524z" />
<glyph unicode="&#x2018;" horiz-adv-x="429" d="M107 1049v9l5 85q1 17 16 56t17 43q50 113 170 185q37 21 49 21h14q31 -4 31 -28q-2 -12 -14 -23t-40 -25q-100 -53 -124 -147h1q108 -8 108 -90v-6l-6 -85q-4 -71 -103 -84q-4 0 -16 1q-108 9 -108 88z" />
<glyph unicode="&#x2019;" horiz-adv-x="433" d="M106 987q1 23 54 49q99 53 125 147q-109 7 -109 88v9l5 84q8 81 119 83q109 -8 109 -91v-6l-6 -85q-10 -51 -32 -98q-50 -114 -171 -186q-34 -21 -55 -21h-3q-19 1 -28 10q-8 8 -8 17z" />
<glyph unicode="&#x201c;" horiz-adv-x="837" d="M107 1049v9l5 85q1 17 16 56q49 149 187 228q29 22 53 22q19 -1 35 -13q4 -7 4 -14q0 -11 -9 -20q-13 -14 -43 -30q-100 -53 -124 -147q109 -7 109 -90v-6l-6 -85q-7 -79 -119 -83q-108 7 -108 88zM496 1049v9l5 85q1 17 13 50l20 49q50 113 170 185q29 22 54 22 q19 -1 34 -13q5 -8 5 -15q0 -10 -9 -19q-14 -14 -44 -30q-100 -53 -124 -147q109 -7 109 -89v-7l-5 -85q-7 -84 -104 -84q-9 1 -16 1q-108 0 -108 88z" />
<glyph unicode="&#x201d;" horiz-adv-x="842" d="M107 986v2q13 31 54 48q99 53 125 147q-109 7 -109 88v9l5 84q8 81 119 83q109 -8 109 -91v-6l-6 -85q-10 -51 -32 -98q-50 -114 -171 -186q-29 -22 -54 -22q-17 0 -32 11q-8 8 -8 16zM496 986v2q13 31 54 48q99 53 125 147q-109 6 -109 88v9l5 84q7 84 101 84q9 0 17 -1 q110 -14 110 -91v-6l-6 -85q-10 -51 -32 -98q-50 -114 -170 -186q-31 -21 -56 -21q-17 0 -32 10q-7 8 -7 16z" />
<glyph unicode="&#x2022;" horiz-adv-x="1241" d="M273 700q0 147 104 251.5t251 104.5t251.5 -104.5t104.5 -251.5t-104.5 -251t-251.5 -104t-251 104t-104 251z" />
<glyph unicode="&#x2026;" horiz-adv-x="2048" d="M246 107q0 111 110 111q109 0 109 -111q0 -110 -109 -110q-110 0 -110 110zM931 107q0 111 109 111q110 0 110 -111q0 -110 -110 -110q-109 0 -109 110zM1616 107q0 111 109 111t109 -111q0 -110 -109 -110t-109 110z" />
<glyph unicode="&#x202f;" horiz-adv-x="303" />
<glyph unicode="&#x205f;" horiz-adv-x="379" />
<glyph unicode="&#x20ac;" horiz-adv-x="1141" d="M45 561v63h124q-1 19 -1 57q0 69 7 125h-130v64h140q46 246 198.5 390.5t348.5 144.5q83 0 176.5 -24.5t178.5 -97.5l-18 -205q-2 -18 -13 -18q-2 0 -4 1q-10 1 -18 27q-47 135 -117 180t-185 45q-136 0 -249.5 -106.5t-149.5 -336.5h673v-64h-681q-6 -59 -6 -125 q0 -29 3 -57h684v-63h-676q30 -185 139.5 -336.5t262.5 -161.5q17 -1 34 -1q92 0 151 38q70 45 117 180q8 25 18 28h1q14 0 16 -18l2 -24l-63 -236q-69 -39 -140.5 -52.5t-135.5 -13.5q-201 0 -363 157.5t-194 439.5h-130z" />
<glyph unicode="&#x2122;" horiz-adv-x="3163" d="M43 1147v185q0 54 18.5 65.5t95.5 11.5h944q83 0 98.5 -10t15.5 -67v-185q0 -21 -21 -21q-9 0 -38 40q-51 69 -87.5 107t-96.5 38h-251v-1165q0 -65 50 -83t50 -43q0 -20 -20 -20h-339q-21 0 -21 20q0 25 50 43t50 83v1165h-255q-60 0 -97.5 -38t-87.5 -107 q-28 -40 -37 -40q-21 0 -21 21zM1389 21q0 25 50 42.5t50 82.5v1111q0 64 -50 82t-50 44q0 21 21 21h266l547 -1122l530 1122h279q21 0 21 -21q0 -26 -50.5 -44t-50.5 -82v-1111q0 -65 50.5 -82.5t50.5 -42.5q0 -21 -21 -21h-339q-21 0 -21 21q0 25 50 42.5t50 82.5v1071 l-577 -1247h-39l-571 1200v-1024q0 -65 50 -82.5t50 -42.5q0 -21 -21 -21h-254q-21 0 -21 21z" />
<glyph unicode="&#xe000;" horiz-adv-x="935" d="M0 935h935v-935h-935v935z" />
</font>
</defs>
</svg>
